Mjpeg decoder

x2 Samsung Spd-400 H.264 Mpeg-4 Mjpeg Multiple Network Decoder; Samsung ...Download ZIP. Launching GitHub Desktop. If nothing happens, download GitHub Desktop and try again. Launching GitHub Desktop. If nothing happens, download GitHub Desktop and try again. Launching Xcode. If nothing happens, download Xcode and try again. Launching Visual Studio Code. Your codespace will open once ready.JPEG JPG Decoder Decompression MJPEG MotionJPEG MJPG IP. M-JPEG Encoder (100 embedded quality levels) JPEG Extended Encoder. See more JPEG JPG Decoder Decompression MJPEG MotionJPEG MJPG IP >>.MJPEG decoder client library for the Universal Windows Platform (UWP) with the following enhancement: If you use an async FrameReady event handler, get the image with BitmapImage img = await e.GetBitmapImage (); SoftwareBitmap img = await e.GetSoftwareBitmap (); If you use a non-async FrameReady event handler, get the image with BitmapImage img ...Could not figure how to get this work so I implemented my own MJPEG frame decoder as a workaround. Here is the code. pData is acquired by GetPointer () call to the ImediaSample pointer and lDataLen is the return value of GetSize ()Motion JPEG or MJPEG is an intraframe video compression format. Each frame is compressed and stored separately as a JPG image. In laymans terms MJPEG is multiple JPG files concatenated into one bigger video file. Uncompressing JPG images. MJPEG video is just a bunch of JPG files.October 14, 2021 - MainConcept today announced that version 2 of their FFmpeg plugin portfolio is available. FFmpeg, an open-source software solution, is used for processing multimedia files in broadcast, streaming, surveillance, gaming, medical and other verticals. Read Press Release. Read Press Release.download M-JPEG Decoder: M-JPEG Encoder: High-quality M-JPEG video encoder DirectShow filter with ARGB32 (alpha channel) support. 2.5.3.0 [ Jul 13, 2018 ] download M-JPEG Encoder: MP3 & AAC Audio Decoder: Decoder for MP3 and AAC audio streams with the ability to switch dynamically between streams. 1.5.3.0 [ Oct 06, 2017 ] download Audio Decoder ... The pipelined structure allows for the processing of multiple image blocks simultanously. Thus, the decoder is prepared to decode MotionJPEG movies. Functionality of the system is demonstrated with a proof-of-concept hardware MotionJPEG video player application. Features - jpeg baseline decoding - mjpeg - display decoded data on a VGA monitor ...Nov 20, 2019 · Android UVC camera support MJPEG. mtch168 November 20, 2019, 9:21am #1. Description. We designed an Android box with Rockchip cpu named RK3399, and we would like to support a 1080p UVC camera with MJPEG. We got the black screen when try to open the camera. JPEG Decoder for OpenCL™. This design example implements a high-performance JPEG decoder using Open Computing Language (OpenCL TM ). The solution consists of several OpenCL kernels connected via Intel's channels vendor extension, where each kernel performs one step in the JPEG decoding pipeline (e.g. Huffman decoding, inverse DCT).Download ZIP. Launching GitHub Desktop. If nothing happens, download GitHub Desktop and try again. Launching GitHub Desktop. If nothing happens, download GitHub Desktop and try again. Launching Xcode. If nothing happens, download Xcode and try again. Launching Visual Studio Code. Your codespace will open once ready. Applications like MJPEG Decoder can only run in systems with big memory storage resources; which is the case of the extended mNoC. This application is based on the JPEG decoder, and it consist in a continuously decoding of each JPEG frame from a MJPEG flow. 2. Implementation05:20:49.325: format: MJPEG Outside of that error, there's really nothing else in the logs that could point to why my stream just dies. Any ideas on this one? I'm not even sure what to start digging into.Mar 17, 2021 · Specifications: Device.Streaming.HMFT.MJPEG.Decoding; Platforms: Windows 10, client editions (x86) Windows 10, client editions (x64) Windows 10, client editions (ARM64) 05:20:49.325: format: MJPEG Outside of that error, there's really nothing else in the logs that could point to why my stream just dies. Any ideas on this one? I'm not even sure what to start digging into.The pipelined structure allows for the processing of multiple image blocks simultanously. Thus, the decoder is prepared to decode MotionJPEG movies. Functionality of the system is demonstrated with a proof-of-concept hardware MotionJPEG video player application. Features - jpeg baseline decoding - mjpeg - display decoded data on a VGA monitor ...[png @ 0x12a0ba0] Unsupported bit depth: 0 [mjpeg @ 0x12a37e0] Unsupported bit depth: 0 Output #0, image2, to 'out.png': Metadata: encoder : Lavf53.10. Stream #0.0, 0, 1/90000: Video: png, rgb24, 1920x1080 [SAR 1:1 DAR 16:9], 1/25, q=2-31, 200 kb/s, 90k tbn, 25 tbc Stream mapping: Stream #0.0 -> #0.0 (mjpeg -> png) Press [q] to stop, [?] for ...B4A Library [B4X] [class] MJPEG decoder. B4A Library. [B4X] [class] MJPEG decoder. The attached class is an implementation of a MJPEG over Http decoder. The data is a mix of strings and raw bytes. It is tempting to convert the bytes to a string. However raw bytes do not represent a valid string so you can lose important information during the ...AVObjects M-JPEG Video Decoder is a high-performance DirectShow decoder for Motion JPEG video with alpha channel support. M-JPEG Compression Technology Features Real-time encoding/decoding of HD video. Ease of reverse playback. Features Multiple CPU support. ARGB32 support (alpha channel). Interlaced/progressive input streams.ESP32-CAM MJPEG Stream Decoder and Control Library. Github. ESP32-CAM is an inexpensive MJPEG stream embedded device. The library is MJPEG stream decoder based on libcurl and OpenCV, and written in C/C++. Firmware. Modify the following code in "CameraWebServer.ino" file, that is MJPEG stream boundary. #define PART_BOUNDARY "WINBONDBOUDARY ...Dec 28, 2011 · I had a lot of trouble getting gstreamer to accept the mjpeg stream and convert it to something HTML5 understands. In the following, I will try to describe how I got it working. Accessing the IP camera I had this running already as part of getting to the virtual camera device, it is described in… Sign in. chromium / libyuv / libyuv / refs/heads/main / . / source / mjpeg_decoder.cc. blob: 4ccf00a3611f562169eac20d5e896862ad4bff94 [] [] []MJPEG Streamer. ‪flyinggorilla‬. ‪Photo & video‬. MJPEG Streamer - Stream USB and built-in Camera as MJPEG streams remotely. It creates similar HTTP based MJPEG streams as the Linux based MJPEG streamer or yawcam. EVERYONE. Users Interact.Download ZIP. Launching GitHub Desktop. If nothing happens, download GitHub Desktop and try again. Launching GitHub Desktop. If nothing happens, download GitHub Desktop and try again. Launching Xcode. If nothing happens, download Xcode and try again. Launching Visual Studio Code. Your codespace will open once ready. ESP32-CAM-MJPEG-Stream-Decoder-and-Control-Library. ESP32-CAM is an inexpensive MJPEG stream embedded device. The library is MJPEG stream decoder based on libcurl and OpenCV, and written in C/C++. Firmware. Modify the following code in "CameraWebServer.ino" file, that is MJPEG stream boundary.M-JPEG Decoder VHDL Core Overview The 4i2i JPEG Decoder Core performs JPEG de-compression in accordance with the Baseline ISO 10918 standard. The inclusion of a Macroblock de-formatter allows the core to operate with a very simple interface as all address generation and data ordering is done within the core itself. This functionalitySamsung Spd-400 H.264 Mpeg-4 Mjpeg Multiple Network Decoder; Samsung ... Apr 22, 2021 · This filter decodes a video stream from motion JPEG to uncompressed video. Some digital video cameras produce a motion JPEG video stream. Remarks This filter is compatible with motion JPEG video that uses the FOURCC code 'MJPG'. It cannot decode other varieties of motion JPEG. For these, you will need to use a third-party decoder filter. H.264 ,又稱為 MPEG-4第10部分,進階視訊編碼 (英語: MPEG-4 Part 10, Advanced Video Coding ,縮寫為MPEG-4 AVC)是一種面向塊,基於 運動補償 的 視訊編碼標準 (英語:Video_coding_format) 。. 到2014年,它已經成為高精度視訊錄製、壓縮和發布的最常用格式之一。. 第一版 ... 06-11-2012 07:10 AM. I want to use the VPU DirectShow Decoder filter to decode a MJPEG file generated by ffmpeg. Is there any documentation for the VPU DirectShow Decoder? I tried to build up a DirectShow graph using IGraphBuilder. But when I set the MediaType.formattype of the AsyncFileReader I cannot find a suitable format type for MJPEG.MJPEG decoder client library for the Universal Windows Platform (UWP) with the following enhancement: If you use an async FrameReady event handler, get the image with BitmapImage img = await e.GetBitmapImage (); SoftwareBitmap img = await e.GetSoftwareBitmap (); If you use a non-async FrameReady event handler, get the image with BitmapImage img ...What Is MJPEG? Motion JPEG or MJPEG (MJPG) is a video format in which video frames are compressed individually as JPEG images. The format is widely used by digital cameras, webcams, and other video recorders and is supported by most web browsers, PlayStation, and the QuickTime player. One of the fastest Motion JPEG codecs currently available is ... the v4l api, and its memory2memory encoder/decoder stuff, supports using dmabuf handles for both input and output that then lets you pipe the mjpeg decoder directly into the h264 encoder, without copying the frames into userlandCould not figure how to get this work so I implemented my own MJPEG frame decoder as a workaround. Here is the code. pData is acquired by GetPointer () call to the ImediaSample pointer and lDataLen is the return value of GetSize ()MJPEG Streamer. ‪flyinggorilla‬. ‪Photo & video‬. MJPEG Streamer - Stream USB and built-in Camera as MJPEG streams remotely. It creates similar HTTP based MJPEG streams as the Linux based MJPEG streamer or yawcam. EVERYONE. Users Interact.Apr 22, 2021 · This filter decodes a video stream from motion JPEG to uncompressed video. Some digital video cameras produce a motion JPEG video stream. Remarks This filter is compatible with motion JPEG video that uses the FOURCC code 'MJPG'. It cannot decode other varieties of motion JPEG. For these, you will need to use a third-party decoder filter. Learn opencv - Reading MJPEG from IP camera Multi-Channel MJPEG Decoder. The logiJPGD Multi-Channel Motion JPEG Decoder is JPEG standard Baseline DCT compliant decoder IP core for still image and video decompression applications on Xilinx All Programmable SoC and FPGA devices. This IP core is specially designed for video over IP applications where the video payload from multiple video ...Intelix INT-IPEX Overview. The Intelix INT-IPEX1000 series extenders are designed to distribute an HDMI formatted video signal from a single source to multiple displays, such as a digital signage environment. The INT-IPEX1002 receives the multicast packet stream on the LAN input and decodes the M-JPEG video back to an HDMI formatted video stream. avdec_mjpeg. libav mjpeg decoder. ... At which resolution to decode images. Flags : Read / Write Default value : full (0) output-corrupt "output-corrupt" gboolean. Whether libav should output frames even if corrupted. Flags : Read / Write Default value : true skip-frame "skip-frame ...The pipelined structure allows for the processing of multiple image blocks simultanously. Thus, the decoder is prepared to decode MotionJPEG movies. Functionality of the system is demonstrated with a proof-of-concept hardware MotionJPEG video player application. Features - jpeg baseline decoding - mjpeg - display decoded data on a VGA monitor ...MJPEG Encoder. The MJPEG encoder provides high-quality still and video compression with a wide quality range, and it supports an industry-standard algorithm. ... The JPEG syntax includes all the information that a decoder needs to decompress a frame, independently of any file format that can happen to contain the compressed frame.AVObjects M-JPEG Video Decoder is a high-performance DirectShow decoder for Motion JPEG video with alpha channel support. M-JPEG Compression Technology Features Real-time encoding/decoding of HD video. Ease of reverse playback. Features Multiple CPU support. ARGB32 support (alpha channel). Interlaced/progressive input streams.Multi-Channel MJPEG Decoder. The logiJPGD Multi-Channel Motion JPEG Decoder is JPEG standard Baseline DCT compliant decoder IP core for still image and video decompression applications on Xilinx All Programmable SoC and FPGA devices. This IP core is specially designed for video over IP applications where the video payload from multiple video ...The library is MJPEG stream decoder based on libcurl and OpenCV, and written in C/C++. deep-neural-networks computer-vision robotics esp32 mjpeg wxwidgets image-processing mjpeg-stream computervision opencv3 mjpeg-decoder openpose mjpeg-player esp32-arduino yolov3 wxwidgers ov2640 esp32-cam opencv4 esp32-library Updated on Jul 10, 2020 C Hikvision Video Decoder - Functions: Video Decoding, Video Streaming - 3840 x 2160 - H.264, H.265, MPEG-4, MJPEG - VGA - Network (RJ-45) (Renewed) Visit the Amazon Renewed Store Product works and looks like new. LEAD's MCMP / MJPEG Video Codec is designed as a multimedia compressor / decompressor that registers into the Windows collection of multimedia drivers. Existing video software, such as Windows ... MJPEG Decoder v1.1 May 7, 2011 C#, Coding4Fun, MJPEG, Silverlight, Windows Phone, WPF, XNA. A quick update to my Motion JPEG Decoder is now available at CodePlex. Version 1.1 adds the ability to specify username/password credentials for cameras that require a login.mjpeg的压缩算法与mpeg一脉相承,功能很强大,能发送高质图片,生成完全动画视频等。但相应地,mjpeg对带宽的要求也很高,相当于t-1,mjpeg信息是存储在数字媒体中的庞然大物,需要大量的存储空间以满足如今多数用户的需求。A NodeJS M-JPEG decoder which can be used to retrieve individual JPEG frames or take a snapshot from a IP/network camera which serves M-JPEG video stream.. Latest version: 1.0.3, last published: 3 years ago. Start using mjpeg-decoder in your project by running `npm i mjpeg-decoder`. There are no other projects in the npm registry using mjpeg-decoder. Dec 28, 2011 · I had a lot of trouble getting gstreamer to accept the mjpeg stream and convert it to something HTML5 understands. In the following, I will try to describe how I got it working. Accessing the IP camera I had this running already as part of getting to the virtual camera device, it is described in… Stream #0.0: Video: mjpeg, yuvj420p, 3648x2736, 25 tbr, 25 tbn, 25 tbc [swscaler @ 0x88a3f00]No accelerated colorspace conversion found. Output #0, image2, to 'testouput.png': Stream #0.0: Video: png, rgb24, 3648x2736, q=2-31, 200 kb/s, 90k tbn, 25 tbc Stream mapping: Stream #0.0 -> #0.0 Press [q] to stop encoding [mjpeg @ 0x88a2070]mjpeg ...MJPEG Decoder v1.1 May 7, 2011 C#, Coding4Fun, MJPEG, Silverlight, Windows Phone, WPF, XNA. A quick update to my Motion JPEG Decoder is now available at CodePlex. Version 1.1 adds the ability to specify username/password credentials for cameras that require a login.2.4 Run Length Decoder The Run Length Decoder takes input from the Huffman decoder and produces a decoded stream of 1s and 0s from the (run,size) input where size is the magnitude of the AC coefficient and run is the number of preceding 0s. Thus, a (0,3) is decoded to a 00000011 and a (1,1) is decoded to a 00000000 00000001. TheseMJPEG- Decoder 1.2.0 .NET Framework 3.5 Package Manager .NET CLI PackageReference Paket CLI Script & Interactive Cake Install-Package MJPEG-Decoder -Version 1.2.0 README Frameworks Dependencies Used By Versions Release Notes A library for decoding MJPEG streams. Runs on .NET 3.5, Winows Phone 7.1, Windows Phone 8.0, and Silverlight 4.0.Could not figure how to get this work so I implemented my own MJPEG frame decoder as a workaround. Here is the code. pData is acquired by GetPointer () call to the ImediaSample pointer and lDataLen is the return value of GetSize ()Multi-Channel MJPEG Decoder. The logiJPGD Multi-Channel Motion JPEG Decoder is JPEG standard Baseline DCT compliant decoder IP core for still image and video decompression applications on Xilinx All Programmable SoC and FPGA devices. This IP core is specially designed for video over IP applications where the video payload from multiple video ...All the markers we have seen so far start with 0xff. 0xff can be part of the image scan data as well but if 0xff is present in the scan data, it will always be proceeded by 0x00. This is something a JPEG encoder does automatically and is called byte stuffing. It is the decoder's duty to remove this proceeding 0x00.LEAD's MCMP / MJPEG Video Codec is designed as a multimedia compressor / decompressor that registers into the Windows collection of multimedia drivers. Existing video software, such as Windows ... Simple MJPEG encoding & decoding. The Motion-JPEG Codec Package allows high-quality, real-time MJPEG encoding and decoding. It also enables you to view Motion-JPEG files created on another computer, even without specialized hardware. It can decode Motion-JPEG (Movie-JPEG, MJPEG, MJPG) AVIs, created with Matrox and similar cards.Sign in. chromium / libyuv / libyuv / refs/heads/main / . / source / mjpeg_decoder.cc. blob: 4ccf00a3611f562169eac20d5e896862ad4bff94 [] [] []If an MJPEG decoder application intends to "do the right thing" and insert the tables itself using the ones from the last full frame, then setting them inside the library as well is just a waste of CPU time and memory. If you are just trying to decode MJPEG frames using some reasonable guess, in the context of a browser, then the patch is ...This project allows you to very easily decode a MJPEG (Motion JPEG) stream from a network camera (or any other source) into a consumable type for WinForms, WPF, Silverlight, XNA and Windows Phone 7 (both Silverlight and XNA). The MJPEG Decoder library started life as a project for the t-shirt cannon built for the MIX10 keynote.DirectShow include an MJPEG decoder, so everything you need is already built into Windows. Thanks for your suggestion. Yes I have tested some Microsoft and logitech cameras , all are giving MJPEG format and also video is played fine by using MJPEG decoder. But this is ok to capture and play in local machines.A NodeJS M-JPEG decoder which can be used to retrieve individual JPEG frames or take a snapshot from a IP/network camera which serves M-JPEG video stream.. Latest version: 1.0.3, last published: 3 years ago. Start using mjpeg-decoder in your project by running `npm i mjpeg-decoder`. There are no other projects in the npm registry using mjpeg-decoder. If an MJPEG decoder application intends to "do the right thing" and insert the tables itself using the ones from the last full frame, then setting them inside the library as well is just a waste of CPU time and memory. If you are just trying to decode MJPEG frames using some reasonable guess, in the context of a browser, then the patch is ...Provides a native Delphi implementation of an MJPEG movie decoder. MJPEG movies are commonly used by web cams and/or web cam software to display image streams. This class uses the Indy component library to make an HTTP connection to an MJPEG movie source on the network, then displays the movie in a standard TImage component.MainConcept (BroadCast) AVC/H.264 Decoder. Download. The MainConcept Decoder Pack H.264/AVC Broadcast for Windows® 32-bit & 64-bit platforms is a powerful set of DirectShow filters that enables you to play back H.LEAD's MCMP / MJPEG Video Codec is designed as a multimedia compressor / decompressor that registers into the Windows collection of multimedia drivers. Existing video software, such as Windows ... Download ZIP. Launching GitHub Desktop. If nothing happens, download GitHub Desktop and try again. Launching GitHub Desktop. If nothing happens, download GitHub Desktop and try again. Launching Xcode. If nothing happens, download Xcode and try again. Launching Visual Studio Code. Your codespace will open once ready.AVObjects M-JPEG Video Decoder is a high-performance DirectShow decoder for Motion JPEG video with alpha channel support. M-JPEG Compression Technology Features Real-time encoding/decoding of HD video. Ease of reverse playback. Features Multiple CPU support. ARGB32 support (alpha channel). Interlaced/progressive input streams.The Marshall Electronics VS-102 is a H.264/MJPEG encoder or decoder device. Use a single VS-102 device as a standalone HD encoder or a pair of devices for a true point-to-point encoding solution. The VS-102 comes in two versions, the VS-102-HDMI , and VS-102-HDSDI. The VS-102-HDMI supports HDMI and Composite inputs, while providing IP and HDMI ...Last modification. Rev 8 2009-11-16 11:03:40 GMT; Author: smanz Log message: - removing a .svn folder from version control (1/2) - bugfix in zigzagOct 16, 2020 · PureVideo Decoder is a plug-in for Windows Media Player Media Center Edition . ... Bandisoft MPEG-1 Decoder compresses videos more effectively than MJPEG codec. Oct 02, 2017 · MJPEG decoder client library for the Universal Windows Platform (UWP) with the following enhancement: If you use an async FrameReady event handler, get the image with BitmapImage img = await e.GetBitmapImage (); SoftwareBitmap img = await e.GetSoftwareBitmap (); If you use a non-async FrameReady event handler, get the image with BitmapImage img ... We are receving stream from IP camera and decoding for analytics purpose. When we set fps = 15 in camera and try to decode with MJPEG decoder we are getting only 7-8 fps, if we find SOI and EOI and pass to JPEG decoder we are getting 13 - 14 fps. 08-08-2012 08:57 PM.MJPEG Encoder. The MJPEG encoder provides high-quality still and video compression with a wide quality range, and it supports an industry-standard algorithm. ... The JPEG syntax includes all the information that a decoder needs to decompress a frame, independently of any file format that can happen to contain the compressed frame.[png @ 0x12a0ba0] Unsupported bit depth: 0 [mjpeg @ 0x12a37e0] Unsupported bit depth: 0 Output #0, image2, to 'out.png': Metadata: encoder : Lavf53.10. Stream #0.0, 0, 1/90000: Video: png, rgb24, 1920x1080 [SAR 1:1 DAR 16:9], 1/25, q=2-31, 200 kb/s, 90k tbn, 25 tbc Stream mapping: Stream #0.0 -> #0.0 (mjpeg -> png) Press [q] to stop, [?] for ...Samsung Spd-400 H.264 Mpeg-4 Mjpeg Multiple Network Decoder; Samsung ... Last modification. Rev 8 2009-11-16 11:03:40 GMT; Author: smanz Log message: - removing a .svn folder from version control (1/2) - bugfix in zigzagavdec_mjpeg. libav mjpeg decoder. ... At which resolution to decode images. Flags : Read / Write Default value : full (0) output-corrupt "output-corrupt" gboolean. Whether libav should output frames even if corrupted. Flags : Read / Write Default value : true skip-frame "skip-frame ...MJPEG Decoder v1.2.1 by Brian Peek There are several assemblies in this package. Select the one that matches the project type you're building: MjpegProcessor.dll - WinForms and WPF MjpegProcessor.winmd - WinRT (AnyCPU, so will work with x86/x64 and ARM) MjpegProcessorSL.dll - Silverlight (Out of Browser Only!)MJPEG- Decoder 1.2.0 .NET Framework 3.5 Package Manager .NET CLI PackageReference Paket CLI Script & Interactive Cake Install-Package MJPEG-Decoder -Version 1.2.0 README Frameworks Dependencies Used By Versions Release Notes A library for decoding MJPEG streams. Runs on .NET 3.5, Winows Phone 7.1, Windows Phone 8.0, and Silverlight 4.0.MJPEG Encoder. The MJPEG encoder provides high-quality still and video compression with a wide quality range, and it supports an industry-standard algorithm. ... The JPEG syntax includes all the information that a decoder needs to decompress a frame, independently of any file format that can happen to contain the compressed frame.A NodeJS M-JPEG decoder which can be used to retrieve individual JPEG frames or take a snapshot from a IP/network camera which serves M-JPEG video stream.. Latest version: 1.0.3, last published: 3 years ago. Start using mjpeg-decoder in your project by running `npm i mjpeg-decoder`. There are no other projects in the npm registry using mjpeg-decoder. MJPEG Encoder. The MJPEG encoder provides high-quality still and video compression with a wide quality range, and it supports an industry-standard algorithm. ... The JPEG syntax includes all the information that a decoder needs to decompress a frame, independently of any file format that can happen to contain the compressed frame.Sign in. chromium / libyuv / libyuv / refs/heads/main / . / source / mjpeg_decoder.cc. blob: 4ccf00a3611f562169eac20d5e896862ad4bff94 [] [] []MJPEG- Decoder 1.2.0 .NET Framework 3.5 Package Manager .NET CLI PackageReference Paket CLI Script & Interactive Cake Install-Package MJPEG-Decoder -Version 1.2.0 README Frameworks Dependencies Used By Versions Release Notes A library for decoding MJPEG streams. Runs on .NET 3.5, Winows Phone 7.1, Windows Phone 8.0, and Silverlight 4.0. Video Decoder. The 2253 can also perform as a decoder, converting a USB-supplied compressed audio/video stream into standard analog video and audio signals. (Note: Decoding is guaranteed only for streams captured with the 2253). The following formats are supported for decoding: MPEG-4, H.264, MP4 and MJPEG.2.4 Run Length Decoder The Run Length Decoder takes input from the Huffman decoder and produces a decoded stream of 1s and 0s from the (run,size) input where size is the magnitude of the AC coefficient and run is the number of preceding 0s. Thus, a (0,3) is decoded to a 00000011 and a (1,1) is decoded to a 00000000 00000001. TheseSep 21, 2015 · The AForge.Video library contains interfaces and classes to access different video sources, such as IP video cameras (MJPEG streams). The library defines types used by other video related libraries from AForge.NET framework. LEAD's MCMP / MJPEG Video Codec is designed as a multimedia compressor / decompressor that registers into the Windows collection of multimedia drivers. Existing video software, such as Windows ... 06-11-2012 07:10 AM. I want to use the VPU DirectShow Decoder filter to decode a MJPEG file generated by ffmpeg. Is there any documentation for the VPU DirectShow Decoder? I tried to build up a DirectShow graph using IGraphBuilder. But when I set the MediaType.formattype of the AsyncFileReader I cannot find a suitable format type for MJPEG.Sign in. chromium / libyuv / libyuv / refs/heads/main / . / source / mjpeg_decoder.cc. blob: 4ccf00a3611f562169eac20d5e896862ad4bff94 [] [] []Applications like MJPEG Decoder can only run in systems with big memory storage resources; which is the case of the extended mNoC. This application is based on the JPEG decoder, and it consist in a continuously decoding of each JPEG frame from a MJPEG flow. 2. ImplementationThe HW decoder is independent of the CUDA SMs so that software GPU decoders can be used simultaneously. By selecting the hardware decoder with the nvjpegCreateEx init function, nvJPEG provides acceleration of baseline JPEG decode, and various color conversion formats (for example, YUV 420, 422, 444). As shown in Figure 4, this results in up to ...The Xylon logiJPGD Multi-Channel Motion JPEG Decoder is a JPEG standard Baseline DCT compliant decoder IP core for still image and video decompression applications on XilinxSoC and FPGA devices. logiJPGD Multi-Channel MJPEG DecoderWhat Is MJPEG? Motion JPEG or MJPEG (MJPG) is a video format in which video frames are compressed individually as JPEG images. The format is widely used by digital cameras, webcams, and other video recorders and is supported by most web browsers, PlayStation, and the QuickTime player. One of the fastest Motion JPEG codecs currently available is ...The MJPEG IP Camera integration allows you to integrate IP cameras which are capable to stream their video with MJPEG (Motion JPEG) into Home Assistant. Prerequisites To use this integration, you will need to at least have the video streaming URL for your camera. The attached class is an implementation of a MJPEG over Http decoder. The data is a mix of strings and raw bytes. It is tempting to convert the bytes to a string. However raw bytes do not represent a valid string so you can lose important information during the conversion (which will also slow...MJPEG Encoder. The MJPEG encoder provides high-quality still and video compression with a wide quality range, and it supports an industry-standard algorithm. ... The JPEG syntax includes all the information that a decoder needs to decompress a frame, independently of any file format that can happen to contain the compressed frame.Sign in. chromium / libyuv / libyuv / refs/heads/main / . / source / mjpeg_decoder.cc. blob: 4ccf00a3611f562169eac20d5e896862ad4bff94 [] [] []JPEGDecoder. Display. Jpeg decoder tested with Arduino Mega, Arduino Due and ESP8266 based NodeMCU 1.0. Decodes jpeg images stored in arrays, SD card files and SPIFFS files. Author: Bodmer. Maintainer: Bodmer. Read the documentation.Download ZIP. Launching GitHub Desktop. If nothing happens, download GitHub Desktop and try again. Launching GitHub Desktop. If nothing happens, download GitHub Desktop and try again. Launching Xcode. If nothing happens, download Xcode and try again. Launching Visual Studio Code. Your codespace will open once ready. download M-JPEG Decoder: M-JPEG Encoder: High-quality M-JPEG video encoder DirectShow filter with ARGB32 (alpha channel) support. 2.5.3.0 [ Jul 13, 2018 ] download M-JPEG Encoder: MP3 & AAC Audio Decoder: Decoder for MP3 and AAC audio streams with the ability to switch dynamically between streams. 1.5.3.0 [ Oct 06, 2017 ] download Audio Decoder ... Feb 28, 2022 · Decode video stream in H.265/ H.264/ MPEG4/ MPEG2/ MJPEG 1/2/3/4/6/7/9/16 display split H.264 ,又稱為 MPEG-4第10部分,進階視訊編碼 (英語: MPEG-4 Part 10, Advanced Video Coding ,縮寫為MPEG-4 AVC)是一種面向塊,基於 運動補償 的 視訊編碼標準 (英語:Video_coding_format) 。. 到2014年,它已經成為高精度視訊錄製、壓縮和發布的最常用格式之一。. 第一版 ... A NodeJS M-JPEG decoder which can be used to retrieve individual JPEG frames or take a snapshot from a IP/network camera which serves M-JPEG video stream.. Latest version: 1.0.3, last published: 3 years ago. Start using mjpeg-decoder in your project by running `npm i mjpeg-decoder`. There are no other projects in the npm registry using mjpeg-decoder. AVObjects M-JPEG Video Decoder is a high-performance DirectShow decoder for Motion JPEG video with alpha channel support. M-JPEG Compression Technology Features Real-time encoding/decoding of HD video. Ease of reverse playback. Features Multiple CPU support. ARGB32 support (alpha channel). Interlaced/progressive input streams.Dec 28, 2011 · I had a lot of trouble getting gstreamer to accept the mjpeg stream and convert it to something HTML5 understands. In the following, I will try to describe how I got it working. Accessing the IP camera I had this running already as part of getting to the virtual camera device, it is described in… DirectShow include an MJPEG decoder, so everything you need is already built into Windows. Thanks for your suggestion. Yes I have tested some Microsoft and logitech cameras , all are giving MJPEG format and also video is played fine by using MJPEG decoder. But this is ok to capture and play in local machines.the v4l api, and its memory2memory encoder/decoder stuff, supports using dmabuf handles for both input and output that then lets you pipe the mjpeg decoder directly into the h264 encoder, without copying the frames into userlandavdec_mjpeg. libav mjpeg decoder. ... At which resolution to decode images. Flags : Read / Write Default value : full (0) output-corrupt "output-corrupt" gboolean. Whether libav should output frames even if corrupted. Flags : Read / Write Default value : true skip-frame "skip-frame ...Nov 20, 2019 · Android UVC camera support MJPEG. mtch168 November 20, 2019, 9:21am #1. Description. We designed an Android box with Rockchip cpu named RK3399, and we would like to support a 1080p UVC camera with MJPEG. We got the black screen when try to open the camera. B4A Library [B4X] [class] MJPEG decoder. B4A Library. [B4X] [class] MJPEG decoder. The attached class is an implementation of a MJPEG over Http decoder. The data is a mix of strings and raw bytes. It is tempting to convert the bytes to a string. However raw bytes do not represent a valid string so you can lose important information during the ...gst-launch-1. -v filesrc location=mjpeg.avi ! avidemux ! queue ! jpegdec ! videoconvert ! videoscale ! autovideosink The above pipeline decode the mjpeg stream and renders it to the screen.The JPEG must be YCbCr colorspace, it must be 4:2:2, and it must use basic Huffman encoding, not arithmetic or progressive. . . . You can indeed extract the MJPEG frames and decode them with a regular JPEG decoder, but you have to prepend the DHT segment to them, or else the decoder won't have any idea how to decompress the data.[png @ 0x12a0ba0] Unsupported bit depth: 0 [mjpeg @ 0x12a37e0] Unsupported bit depth: 0 Output #0, image2, to 'out.png': Metadata: encoder : Lavf53.10. Stream #0.0, 0, 1/90000: Video: png, rgb24, 1920x1080 [SAR 1:1 DAR 16:9], 1/25, q=2-31, 200 kb/s, 90k tbn, 25 tbc Stream mapping: Stream #0.0 -> #0.0 (mjpeg -> png) Press [q] to stop, [?] for ...05:20:49.325: format: MJPEG Outside of that error, there's really nothing else in the logs that could point to why my stream just dies. Any ideas on this one? I'm not even sure what to start digging into.Aug 25, 2018 · Hi, I am trying to use the OMX.amlogic.mjpeg.decoder.awesome MJPEG decoder for an 1920x1080 video stream, but I am not able to get more then 22 fps. What Is MJPEG? Motion JPEG or MJPEG (MJPG) is a video format in which video frames are compressed individually as JPEG images. The format is widely used by digital cameras, webcams, and other video recorders and is supported by most web browsers, PlayStation, and the QuickTime player. One of the fastest Motion JPEG codecs currently available is ...A NodeJS M-JPEG decoder which can be used to retrieve individual JPEG frames or take a snapshot from a IP/network camera which serves M-JPEG video stream.. Latest version: 1.0.3, last published: 3 years ago. Start using mjpeg-decoder in your project by running `npm i mjpeg-decoder`. There are no other projects in the npm registry using mjpeg-decoder. Learn opencv - Reading MJPEG from IP camera JPEG JPG Decoder Decompression MJPEG MotionJPEG MJPG IP. M-JPEG Encoder (100 embedded quality levels) JPEG Extended Encoder. See more JPEG JPG Decoder Decompression MJPEG MotionJPEG MJPG IP >>.Apr 22, 2021 · This filter decodes a video stream from motion JPEG to uncompressed video. Some digital video cameras produce a motion JPEG video stream. Remarks This filter is compatible with motion JPEG video that uses the FOURCC code 'MJPG'. It cannot decode other varieties of motion JPEG. For these, you will need to use a third-party decoder filter. gst-launch-1. -v filesrc location=mjpeg.avi ! avidemux ! queue ! jpegdec ! videoconvert ! videoscale ! autovideosink The above pipeline decode the mjpeg stream and renders it to the screen.What Is MJPEG? Motion JPEG or MJPEG (MJPG) is a video format in which video frames are compressed individually as JPEG images. The format is widely used by digital cameras, webcams, and other video recorders and is supported by most web browsers, PlayStation, and the QuickTime player. One of the fastest Motion JPEG codecs currently available is ...the v4l api, and its memory2memory encoder/decoder stuff, supports using dmabuf handles for both input and output that then lets you pipe the mjpeg decoder directly into the h264 encoder, without copying the frames into userland[png @ 0x12a0ba0] Unsupported bit depth: 0 [mjpeg @ 0x12a37e0] Unsupported bit depth: 0 Output #0, image2, to 'out.png': Metadata: encoder : Lavf53.10. Stream #0.0, 0, 1/90000: Video: png, rgb24, 1920x1080 [SAR 1:1 DAR 16:9], 1/25, q=2-31, 200 kb/s, 90k tbn, 25 tbc Stream mapping: Stream #0.0 -> #0.0 (mjpeg -> png) Press [q] to stop, [?] for ...ESP32-CAM MJPEG Stream Decoder and Control Library. Github. ESP32-CAM is an inexpensive MJPEG stream embedded device. The library is MJPEG stream decoder based on libcurl and OpenCV, and written in C/C++. Firmware. Modify the following code in "CameraWebServer.ino" file, that is MJPEG stream boundary. #define PART_BOUNDARY "WINBONDBOUDARY ...mjpeg is frequently decoded as full range yuv - it's also dependent on the decoder settings in your application. Some mjpeg decoders will clamp to 16-235. "yuvj422p" will be full range YUV. (The "j" indicates full range 0-255), so if you decoder doesn't clamp, it will be 0-255 I see there is a new curves filter in the ffmpeg 2.0 changelog. If ...Stream #0.0: Video: mjpeg, yuvj420p, 3648x2736, 25 tbr, 25 tbn, 25 tbc [swscaler @ 0x88a3f00]No accelerated colorspace conversion found. Output #0, image2, to 'testouput.png': Stream #0.0: Video: png, rgb24, 3648x2736, q=2-31, 200 kb/s, 90k tbn, 25 tbc Stream mapping: Stream #0.0 -> #0.0 Press [q] to stop encoding [mjpeg @ 0x88a2070]mjpeg ...But since MJPEG can go into an mkv container, I'm sure it's possible to have a file that doesn't duplicate the jpeg data for repeated frames, but instead just doesn't have an output frame to decode until the sequence of duplicates is over. Oh here's an idea: ffmpeg -framerate blah -input blah -vf mpdecimate -f mkvtimestamp_v2 mpdecimate.timestampsAug 25, 2018 · Hi, I am trying to use the OMX.amlogic.mjpeg.decoder.awesome MJPEG decoder for an 1920x1080 video stream, but I am not able to get more then 22 fps. The attached class is an implementation of a MJPEG over Http decoder. The data is a mix of strings and raw bytes. It is tempting to convert the bytes to a string. However raw bytes do not represent a valid string so you can lose important information during the conversion (which will also slow... C# (CSharp) MjpegDecoder.ParseStream - 13 examples found. These are the top rated real world C# (CSharp) examples of MjpegDecoder.ParseStream extracted from open source projects. You can rate examples to help us improve the quality of examples.avdec_mjpeg. libav mjpeg decoder. ... At which resolution to decode images. Flags : Read / Write Default value : full (0) output-corrupt "output-corrupt" gboolean. Whether libav should output frames even if corrupted. Flags : Read / Write Default value : true skip-frame "skip-frame ...Samsung Spd-400 H.264 Mpeg-4 Mjpeg Multiple Network Decoder; Samsung ... Aug 25, 2018 · Hi, I am trying to use the OMX.amlogic.mjpeg.decoder.awesome MJPEG decoder for an 1920x1080 video stream, but I am not able to get more then 22 fps. MJPEG Decoder v1.1 May 7, 2011 C#, Coding4Fun, MJPEG, Silverlight, Windows Phone, WPF, XNA. A quick update to my Motion JPEG Decoder is now available at CodePlex. Version 1.1 adds the ability to specify username/password credentials for cameras that require a login.The pipelined structure allows for the processing of multiple image blocks simultanously. Thus, the decoder is prepared to decode MotionJPEG movies. Functionality of the system is demonstrated with a proof-of-concept hardware MotionJPEG video player application. Features - jpeg baseline decoding - mjpeg - display decoded data on a VGA monitor ...Night Indoor (1 lux) - H.264 bandwidth was 720 Kbps. By contrast, MJPEG bandwidth was 13.27Mbps, a 18x difference, with a 95% bandwidth savings. Although both images look similar in quality, the MJPEG scene has a little more visible noise, while the H.264 image is a little softer.Night Indoor (1 lux) - H.264 bandwidth was 720 Kbps. By contrast, MJPEG bandwidth was 13.27Mbps, a 18x difference, with a 95% bandwidth savings. Although both images look similar in quality, the MJPEG scene has a little more visible noise, while the H.264 image is a little softer.We are receving stream from IP camera and decoding for analytics purpose. When we set fps = 15 in camera and try to decode with MJPEG decoder we are getting only 7-8 fps, if we find SOI and EOI and pass to JPEG decoder we are getting 13 - 14 fps. 08-08-2012 08:57 PM.Aug 25, 2018 · Hi, I am trying to use the OMX.amlogic.mjpeg.decoder.awesome MJPEG decoder for an 1920x1080 video stream, but I am not able to get more then 22 fps. MJPEG- Decoder 1.2.0 .NET Framework 3.5 Package Manager .NET CLI PackageReference Paket CLI Script & Interactive Cake Install-Package MJPEG-Decoder -Version 1.2.0 README Frameworks Dependencies Used By Versions Release Notes A library for decoding MJPEG streams. Runs on .NET 3.5, Winows Phone 7.1, Windows Phone 8.0, and Silverlight 4.0. If an MJPEG decoder application intends to "do the right thing" and insert the tables itself using the ones from the last full frame, then setting them inside the library as well is just a waste of CPU time and memory. If you are just trying to decode MJPEG frames using some reasonable guess, in the context of a browser, then the patch is ...Hikvision Video Decoder - Functions: Video Decoding, Video Streaming - 3840 x 2160 - H.264, H.265, MPEG-4, MJPEG - VGA - Network (RJ-45) (Renewed) Visit the Amazon Renewed Store Product works and looks like new. The Xylon logiJPGD Multi-Channel Motion JPEG Decoder is a JPEG standard Baseline DCT compliant decoder IP core for still image and video decompression applications on XilinxSoC and FPGA devices. logiJPGD Multi-Channel MJPEG DecoderAVObjects M-JPEG Video Decoder is a high-performance DirectShow decoder for Motion JPEG video with alpha channel support. M-JPEG Compression Technology Features Real-time encoding/decoding of HD video. Ease of reverse playback. Features Multiple CPU support. ARGB32 support (alpha channel). Interlaced/progressive input streams.All the markers we have seen so far start with 0xff. 0xff can be part of the image scan data as well but if 0xff is present in the scan data, it will always be proceeded by 0x00. This is something a JPEG encoder does automatically and is called byte stuffing. It is the decoder's duty to remove this proceeding 0x00.Samsung Spd-400 H.264 Mpeg-4 Mjpeg Multiple Network Decoder; Samsung ... M-JPEG Decoder VHDL Core Overview The 4i2i JPEG Decoder Core performs JPEG de-compression in accordance with the Baseline ISO 10918 standard. The inclusion of a Macroblock de-formatter allows the core to operate with a very simple interface as all address generation and data ordering is done within the core itself. This functionalitySign in. chromium / libyuv / libyuv / refs/heads/main / . / source / mjpeg_decoder.cc. blob: 4ccf00a3611f562169eac20d5e896862ad4bff94 [] [] []Hi, I am using Logitech C920 webcam on Jetson Nano and trying to capture a MJPEG video stream and to convert its frames to BGR (or BGRx) format while doing the decoding on the Jetson hardware (same issue reproduce on Je… We are receving stream from IP camera and decoding for analytics purpose. When we set fps = 15 in camera and try to decode with MJPEG decoder we are getting only 7-8 fps, if we find SOI and EOI and pass to JPEG decoder we are getting 13 - 14 fps. 08-08-2012 08:57 PM.DirectShow include an MJPEG decoder, so everything you need is already built into Windows. Thanks for your suggestion. Yes I have tested some Microsoft and logitech cameras , all are giving MJPEG format and also video is played fine by using MJPEG decoder. But this is ok to capture and play in local machines.The attached class is an implementation of a MJPEG over Http decoder. The data is a mix of strings and raw bytes. It is tempting to convert the bytes to a string. However raw bytes do not represent a valid string so you can lose important information during the conversion (which will also slow...MainConcept Motion JPEG Codec 3.2.4. Encoding motion JPEG files becomes fast and easy with the MainConcept Motion JPEG Codec, an application which also allows you to view files created on another computer, even if you do not have specialized hardware. This codec is recommended to manufacturers of webcams, surveillance systems and of various ...LEAD's MCMP / MJPEG Video Codec is designed as a multimedia compressor / decompressor that registers into the Windows collection of multimedia drivers. Existing video software, such as Windows ... gst-launch-1. -v filesrc location=mjpeg.avi ! avidemux ! queue ! jpegdec ! videoconvert ! videoscale ! autovideosink The above pipeline decode the mjpeg stream and renders it to the screen.DirectShow include an MJPEG decoder, so everything you need is already built into Windows. Thanks for your suggestion. Yes I have tested some Microsoft and logitech cameras , all are giving MJPEG format and also video is played fine by using MJPEG decoder. But this is ok to capture and play in local machines.Download ZIP. Launching GitHub Desktop. If nothing happens, download GitHub Desktop and try again. Launching GitHub Desktop. If nothing happens, download GitHub Desktop and try again. Launching Xcode. If nothing happens, download Xcode and try again. Launching Visual Studio Code. Your codespace will open once ready.Video Decoder. The 2253 can also perform as a decoder, converting a USB-supplied compressed audio/video stream into standard analog video and audio signals. (Note: Decoding is guaranteed only for streams captured with the 2253). The following formats are supported for decoding: MPEG-4, H.264, MP4 and MJPEG.OpenMAX MJPEG decoder Mark Thompson Intellectual 560 points I have been trying to use the DM8168 MJPEG decoder via OpenMAX in EZSDK 5.04. As shown in the decode_display example, it works fine for decoding a small number of frames. However, I am having a problem with it keeping going after the first few frames.gst-launch-1. -v filesrc location=mjpeg.avi ! avidemux ! queue ! jpegdec ! videoconvert ! videoscale ! autovideosink The above pipeline decode the mjpeg stream and renders it to the screen.The Marshall Electronics VS-102 is a H.264/MJPEG encoder or decoder device. Use a single VS-102 device as a standalone HD encoder or a pair of devices for a true point-to-point encoding solution. The VS-102 comes in two versions, the VS-102-HDMI , and VS-102-HDSDI. The VS-102-HDMI supports HDMI and Composite inputs, while providing IP and HDMI ...A NodeJS M-JPEG decoder which can be used to retrieve individual JPEG frames or take a snapshot from a IP/network camera which serves M-JPEG video stream.. Latest version: 1.0.3, last published: 3 years ago. Start using mjpeg-decoder in your project by running `npm i mjpeg-decoder`. There are no other projects in the npm registry using mjpeg-decoder.MJPEG Streamer. ‪flyinggorilla‬. ‪Photo & video‬. MJPEG Streamer - Stream USB and built-in Camera as MJPEG streams remotely. It creates similar HTTP based MJPEG streams as the Linux based MJPEG streamer or yawcam. EVERYONE. Users Interact.Samsung Spd-400 H.264 Mpeg-4 Mjpeg Multiple Network Decoder; Samsung ... JPEG JPG Decoder Decompression MJPEG MotionJPEG MJPG IP. M-JPEG Encoder (100 embedded quality levels) JPEG Extended Encoder. See more JPEG JPG Decoder Decompression MJPEG MotionJPEG MJPG IP >>.mjpeg is frequently decoded as full range yuv - it's also dependent on the decoder settings in your application. Some mjpeg decoders will clamp to 16-235. "yuvj422p" will be full range YUV. (The "j" indicates full range 0-255), so if you decoder doesn't clamp, it will be 0-255 I see there is a new curves filter in the ffmpeg 2.0 changelog. If ...All the markers we have seen so far start with 0xff. 0xff can be part of the image scan data as well but if 0xff is present in the scan data, it will always be proceeded by 0x00. This is something a JPEG encoder does automatically and is called byte stuffing. It is the decoder's duty to remove this proceeding 0x00."The Pi supports hardware accelerated MJPEG via IL or MMAL, but FFMPEG doesn't. Having said that, the MMAL decoder would probably only need a half-dozen lines of code added to support it, mainly setting up format_in->encoding in ffmmal_init_decoder, and a FFMMAL_DEC definition at the end of the file.MJPEG- Decoder 1.2.0 .NET Framework 3.5 Package Manager .NET CLI PackageReference Paket CLI Script & Interactive Cake Install-Package MJPEG-Decoder -Version 1.2.0 README Frameworks Dependencies Used By Versions Release Notes A library for decoding MJPEG streams. Runs on .NET 3.5, Winows Phone 7.1, Windows Phone 8.0, and Silverlight 4.0.MJPEG Tools defers the creation of DivX video to other applications which are more suited to the task, such as mencoder, transcode, and avifile. There is a demonstration script in the MJPEG Tools package called lav2avi that does a basic job of DivX encoding using mencoder, which can be used as a basis for a more fine-tuned version if required.I am creating video conference application. I have discovered that webcams (at least 3 I have) provide higher resolutions and framerates for mJPEG output format. So far I was using YUY2, converted in I420 for compression with X264. To transcode mJPEG to I420, I need to decode it first. I am trying to decode images from webcam with libavcodec.Hi, I am using Logitech C920 webcam on Jetson Nano and trying to capture a MJPEG video stream and to convert its frames to BGR (or BGRx) format while doing the decoding on the Jetson hardware (same issue reproduce on Je…Provides a native Delphi implementation of an MJPEG movie decoder. MJPEG movies are commonly used by web cams and/or web cam software to display image streams. This class uses the Indy component library to make an HTTP connection to an MJPEG movie source on the network, then displays the movie in a standard TImage component.JPEG JPG Decoder Decompression MJPEG MotionJPEG MJPG IP. M-JPEG Encoder (100 embedded quality levels) JPEG Extended Encoder. See more JPEG JPG Decoder Decompression MJPEG MotionJPEG MJPG IP >>.Sep 21, 2015 · The AForge.Video library contains interfaces and classes to access different video sources, such as IP video cameras (MJPEG streams). The library defines types used by other video related libraries from AForge.NET framework. Simple MJPEG encoding & decoding. The Motion-JPEG Codec Package allows high-quality, real-time MJPEG encoding and decoding. It also enables you to view Motion-JPEG files created on another computer, even without specialized hardware. It can decode Motion-JPEG (Movie-JPEG, MJPEG, MJPG) AVIs, created with Matrox and similar cards.LEAD's MCMP / MJPEG Video Codec is designed as a multimedia compressor / decompressor that registers into the Windows collection of multimedia drivers. Existing video software, such as Windows ... H.264 ,又稱為 MPEG-4第10部分,進階視訊編碼 (英語: MPEG-4 Part 10, Advanced Video Coding ,縮寫為MPEG-4 AVC)是一種面向塊,基於 運動補償 的 視訊編碼標準 (英語:Video_coding_format) 。. 到2014年,它已經成為高精度視訊錄製、壓縮和發布的最常用格式之一。. 第一版 ... The pipelined structure allows for the processing of multiple image blocks simultanously. Thus, the decoder is prepared to decode MotionJPEG movies. Functionality of the system is demonstrated with a proof-of-concept hardware MotionJPEG video player application. Features - jpeg baseline decoding - mjpeg - display decoded data on a VGA monitor ...Apr 02, 2005 · MJPEG Tools. general description. The mjpeg programs are a set of tools that can do recording of videos and playback, simple cut-and-paste editing and the MPEG compression of audio and video under Linux. Recording is supported for the Zoran based cards like the Buz (Iomega), DC10 (MIRO, Pinnacle), Matrox Marvel cards and the LML33 (Linux Media ... Apr 02, 2005 · MJPEG Tools. general description. The mjpeg programs are a set of tools that can do recording of videos and playback, simple cut-and-paste editing and the MPEG compression of audio and video under Linux. Recording is supported for the Zoran based cards like the Buz (Iomega), DC10 (MIRO, Pinnacle), Matrox Marvel cards and the LML33 (Linux Media ... This filter decodes a video stream from motion JPEG to uncompressed video. Some digital video cameras produce a motion JPEG video stream. Remarks This filter is compatible with motion JPEG video that uses the FOURCC code 'MJPG'. It cannot decode other varieties of motion JPEG. For these, you will need to use a third-party decoder filter.Download ZIP. Launching GitHub Desktop. If nothing happens, download GitHub Desktop and try again. Launching GitHub Desktop. If nothing happens, download GitHub Desktop and try again. Launching Xcode. If nothing happens, download Xcode and try again. Launching Visual Studio Code. Your codespace will open once ready.Download ZIP. Launching GitHub Desktop. If nothing happens, download GitHub Desktop and try again. Launching GitHub Desktop. If nothing happens, download GitHub Desktop and try again. Launching Xcode. If nothing happens, download Xcode and try again. Launching Visual Studio Code. Your codespace will open once ready. Oct 16, 2020 · PureVideo Decoder is a plug-in for Windows Media Player Media Center Edition . ... Bandisoft MPEG-1 Decoder compresses videos more effectively than MJPEG codec. MJPEG Decoder v1.2.1 by Brian Peek There are several assemblies in this package. Select the one that matches the project type you're building: MjpegProcessor.dll - WinForms and WPF MjpegProcessor.winmd - WinRT (AnyCPU, so will work with x86/x64 and ARM) MjpegProcessorSL.dll - Silverlight (Out of Browser Only!)MainConcept (BroadCast) AVC/H.264 Decoder. Download. The MainConcept Decoder Pack H.264/AVC Broadcast for Windows® 32-bit & 64-bit platforms is a powerful set of DirectShow filters that enables you to play back H.Download ZIP. Launching GitHub Desktop. If nothing happens, download GitHub Desktop and try again. Launching GitHub Desktop. If nothing happens, download GitHub Desktop and try again. Launching Xcode. If nothing happens, download Xcode and try again. Launching Visual Studio Code. Your codespace will open once ready. A NodeJS M-JPEG decoder which can be used to retrieve individual JPEG frames or take a snapshot from a IP/network camera which serves M-JPEG video stream.. Latest version: 1.0.3, last published: 3 years ago. Start using mjpeg-decoder in your project by running `npm i mjpeg-decoder`. There are no other projects in the npm registry using mjpeg-decoder.H.264 ,又稱為 MPEG-4第10部分,進階視訊編碼 (英語: MPEG-4 Part 10, Advanced Video Coding ,縮寫為MPEG-4 AVC)是一種面向塊,基於 運動補償 的 視訊編碼標準 (英語:Video_coding_format) 。. 到2014年,它已經成為高精度視訊錄製、壓縮和發布的最常用格式之一。. 第一版 ... ESP32-CAM MJPEG Stream Decoder and Control Library. Github. ESP32-CAM is an inexpensive MJPEG stream embedded device. The library is MJPEG stream decoder based on libcurl and OpenCV, and written in C/C++. Firmware. Modify the following code in "CameraWebServer.ino" file, that is MJPEG stream boundary. #define PART_BOUNDARY "WINBONDBOUDARY ...Download ZIP. Launching GitHub Desktop. If nothing happens, download GitHub Desktop and try again. Launching GitHub Desktop. If nothing happens, download GitHub Desktop and try again. Launching Xcode. If nothing happens, download Xcode and try again. Launching Visual Studio Code. Your codespace will open once ready.MJPEG- Decoder 1.2.0 .NET Framework 3.5 Package Manager .NET CLI PackageReference Paket CLI Script & Interactive Cake Install-Package MJPEG-Decoder -Version 1.2.0 README Frameworks Dependencies Used By Versions Release Notes A library for decoding MJPEG streams. Runs on .NET 3.5, Winows Phone 7.1, Windows Phone 8.0, and Silverlight 4.0.Dec 17, 2009 · 図3 ffdshowのインストール. まず言語を設定するウィンドウが表示されるので、「Japanese」を選択する. 「次へ」をクリックする. インストール先を指定する。. 通常はそのままで「次へ」をクリックすればOK. インストールするコンポーネントを選択する。. 通常 ... Aug 25, 2018 · Hi, I am trying to use the OMX.amlogic.mjpeg.decoder.awesome MJPEG decoder for an 1920x1080 video stream, but I am not able to get more then 22 fps. The Marshall Electronics VS-102 is a H.264/MJPEG encoder or decoder device. Use a single VS-102 device as a standalone HD encoder or a pair of devices for a true point-to-point encoding solution. The VS-102 comes in two versions, the VS-102-HDMI , and VS-102-HDSDI. The VS-102-HDMI supports HDMI and Composite inputs, while providing IP and HDMI ...Dec 28, 2011 · I had a lot of trouble getting gstreamer to accept the mjpeg stream and convert it to something HTML5 understands. In the following, I will try to describe how I got it working. Accessing the IP camera I had this running already as part of getting to the virtual camera device, it is described in… Hikvision Video Decoder - Functions: Video Decoding, Video Streaming - 3840 x 2160 - H.264, H.265, MPEG-4, MJPEG - VGA - Network (RJ-45) (Renewed) Visit the Amazon Renewed Store Product works and looks like new. A NodeJS M-JPEG decoder which can be used to retrieve individual JPEG frames or take a snapshot from a IP/network camera which serves M-JPEG video stream.. Latest version: 1.0.3, last published: 3 years ago. Start using mjpeg-decoder in your project by running `npm i mjpeg-decoder`. There are no other projects in the npm registry using mjpeg-decoder.mjpeg的压缩算法与mpeg一脉相承,功能很强大,能发送高质图片,生成完全动画视频等。但相应地,mjpeg对带宽的要求也很高,相当于t-1,mjpeg信息是存储在数字媒体中的庞然大物,需要大量的存储空间以满足如今多数用户的需求。[png @ 0x12a0ba0] Unsupported bit depth: 0 [mjpeg @ 0x12a37e0] Unsupported bit depth: 0 Output #0, image2, to 'out.png': Metadata: encoder : Lavf53.10. Stream #0.0, 0, 1/90000: Video: png, rgb24, 1920x1080 [SAR 1:1 DAR 16:9], 1/25, q=2-31, 200 kb/s, 90k tbn, 25 tbc Stream mapping: Stream #0.0 -> #0.0 (mjpeg -> png) Press [q] to stop, [?] for ...Download ZIP. Launching GitHub Desktop. If nothing happens, download GitHub Desktop and try again. Launching GitHub Desktop. If nothing happens, download GitHub Desktop and try again. Launching Xcode. If nothing happens, download Xcode and try again. Launching Visual Studio Code. Your codespace will open once ready.The HW decoder is independent of the CUDA SMs so that software GPU decoders can be used simultaneously. By selecting the hardware decoder with the nvjpegCreateEx init function, nvJPEG provides acceleration of baseline JPEG decode, and various color conversion formats (for example, YUV 420, 422, 444). As shown in Figure 4, this results in up to ...A NodeJS M-JPEG decoder which can be used to retrieve individual JPEG frames or take a snapshot from a IP/network camera which serves M-JPEG video stream.. Latest version: 1.0.3, last published: 3 years ago. Start using mjpeg-decoder in your project by running `npm i mjpeg-decoder`. There are no other projects in the npm registry using mjpeg-decoder.M-JPEG Decoder VHDL Core Overview The 4i2i JPEG Decoder Core performs JPEG de-compression in accordance with the Baseline ISO 10918 standard. The inclusion of a Macroblock de-formatter allows the core to operate with a very simple interface as all address generation and data ordering is done within the core itself. This functionalityOct 16, 2020 · PureVideo Decoder is a plug-in for Windows Media Player Media Center Edition . ... Bandisoft MPEG-1 Decoder compresses videos more effectively than MJPEG codec. Hikvision Video Decoder - Functions: Video Decoding, Video Streaming - 3840 x 2160 - H.264, H.265, MPEG-4, MJPEG - VGA - Network (RJ-45) (Renewed) Visit the Amazon Renewed Store Product works and looks like new. Hikvision Video Decoder - Functions: Video Decoding, Video Streaming - 3840 x 2160 - H.264, H.265, MPEG-4, MJPEG - VGA - Network (RJ-45) (Renewed) Visit the Amazon Renewed Store Product works and looks like new. Mar 17, 2021 · Specifications: Device.Streaming.HMFT.MJPEG.Decoding; Platforms: Windows 10, client editions (x86) Windows 10, client editions (x64) Windows 10, client editions (ARM64) Sep 21, 2015 · The AForge.Video library contains interfaces and classes to access different video sources, such as IP video cameras (MJPEG streams). The library defines types used by other video related libraries from AForge.NET framework. Apr 02, 2005 · MJPEG Tools. general description. The mjpeg programs are a set of tools that can do recording of videos and playback, simple cut-and-paste editing and the MPEG compression of audio and video under Linux. Recording is supported for the Zoran based cards like the Buz (Iomega), DC10 (MIRO, Pinnacle), Matrox Marvel cards and the LML33 (Linux Media ... Intelix INT-IPEX Overview. The Intelix INT-IPEX1000 series extenders are designed to distribute an HDMI formatted video signal from a single source to multiple displays, such as a digital signage environment. The INT-IPEX1002 receives the multicast packet stream on the LAN input and decodes the M-JPEG video back to an HDMI formatted video stream. Sign in. chromium / libyuv / libyuv / refs/heads/main / . / source / mjpeg_decoder.cc. blob: 4ccf00a3611f562169eac20d5e896862ad4bff94 [] [] []Provides a native Delphi implementation of an MJPEG movie decoder. MJPEG movies are commonly used by web cams and/or web cam software to display image streams. This class uses the Indy component library to make an HTTP connection to an MJPEG movie source on the network, then displays the movie in a standard TImage component.Samsung Spd-400 H.264 Mpeg-4 Mjpeg Multiple Network Decoder; Samsung ... Could not figure how to get this work so I implemented my own MJPEG frame decoder as a workaround. Here is the code. pData is acquired by GetPointer () call to the ImediaSample pointer and lDataLen is the return value of GetSize ()Could not open MJPEG Decoder. Segmentation Fault. I'm using a Logitech Webcam Pro 9000, on Ubuntu 11.04, with the latest "usb_cam" downloaded from the bosch-ros-pkg repository. usb_cam works great when I set pixel_format to "yuyv", and I can see the image with image_view. However, the frame rates for "mjpeg" should be 4x higher than "yuyv" at ...JPEG JPG Decoder Decompression MJPEG MotionJPEG MJPG IP. M-JPEG Encoder (100 embedded quality levels) JPEG Extended Encoder. See more JPEG JPG Decoder Decompression MJPEG MotionJPEG MJPG IP >>.OpenMAX MJPEG decoder Mark Thompson Intellectual 560 points I have been trying to use the DM8168 MJPEG decoder via OpenMAX in EZSDK 5.04. As shown in the decode_display example, it works fine for decoding a small number of frames. However, I am having a problem with it keeping going after the first few frames.But since MJPEG can go into an mkv container, I'm sure it's possible to have a file that doesn't duplicate the jpeg data for repeated frames, but instead just doesn't have an output frame to decode until the sequence of duplicates is over. Oh here's an idea: ffmpeg -framerate blah -input blah -vf mpdecimate -f mkvtimestamp_v2 mpdecimate.timestampsH.264 ,又稱為 MPEG-4第10部分,進階視訊編碼 (英語: MPEG-4 Part 10, Advanced Video Coding ,縮寫為MPEG-4 AVC)是一種面向塊,基於 運動補償 的 視訊編碼標準 (英語:Video_coding_format) 。. 到2014年,它已經成為高精度視訊錄製、壓縮和發布的最常用格式之一。. 第一版 ... MainConcept Motion JPEG Codec 3.2.4. Encoding motion JPEG files becomes fast and easy with the MainConcept Motion JPEG Codec, an application which also allows you to view files created on another computer, even if you do not have specialized hardware. This codec is recommended to manufacturers of webcams, surveillance systems and of various ...