Ffmpeg libaom

x2 FFMpeg allows to crop a given media file in any dimension of our choice. The syntax to crop a video file is given below: ffmpeg -i input.mp4 -filter:v "crop=w:h:x:y" output.mp4. Here, input.mp4 - source video file.-filter:v - Indicates the video filter. crop - Indicates crop filter. w - Width of the rectangle that we want to crop from the ...libaom:AV1 编码器; 音频编码器如下。 libfdk-aac; aac; 下面的命令可以查看 FFmpeg 已安装的编码器。 $ ffmpeg -encoders 二、FFmpeg 的使用格式. FFmpeg 的命令行参数非常多,可以分成五个部分。 $ ffmpeg {1} {2} -i {3} {4} {5} 上面命令中,五个部分的参数依次如下。 全局参数 ...I definitely got better quality with rav1e than libaom (via ffmpeg), before I gave up on the latter altogether. clouddrover 12 months ago Here are some measured results. rav1e is worse than libaom and SVT-AV1:新春特別企画。 CompilationGuide/Ubuntu - FFmpegを元ネタにffmpegをビルドするテスト、のおかわり。 AV1エンコーダが入ったり、上記ドキュメントも若干とはいえ半年前と変わっているので… あとラジコがflash廃止したりいろいろ。 さいしょに 結論(ここを適切にコピペすれば以下は読まな…解説. FFmpegは、単体ではGUIを持たないツールでUNIX コマンドのように振る舞う。 その為、対話式アプリケーションとして使用される場合、フロントエンドを用いる事も多い。 コマンドラインから実行するCUIとして配布されているのは、ユーザが必要とすればフロントエンドを利用でき ...ffmpeg -i clip.mp4 video.gif OR ffmpeg -i clip.mp4 video.webm. Conclusion. That was a quick introduction on how to install and use ffmpeg on Fedora Linux. The ffmpeg has many more options, see -h option to get full help or, even better, run the following man command (or see documenation online): $ man ffmpeg $ ffmpeg -h. 🥺 Was this helpful?There are currently three AV1 encoders supported by FFmpeg: libaom (invoked with libaom-av1 in FFmpeg), SVT-AV1 ( libsvtav1 ), and rav1e ( librav1e ). This guide currently focuses on libaom and SVT-AV1. libaom libaom ( libaom-av1) is the reference encoder for the AV1 format. libilbc, opus, snappy, x264 and xvidcore are supported since v1.1. libaom and soxr are supported since v2.0. chromaprint, vid.stab and x265 are supported since v2.1. sdl, tesseract, twolame external libraries; zlib, MediaCodec Android system libraries; bzip2, zlib iOS system libraries and AudioToolbox, VideoToolbox, AVFoundation iOS system frameworks are supported since v3.0libilbc, opus, snappy, x264 and xvidcore are supported since v1.1. libaom and soxr are supported since v2.0. chromaprint, vid.stab and x265 are supported since v2.1. sdl, tesseract, twolame external libraries; zlib, MediaCodec Android system libraries; bzip2, zlib iOS system libraries and AudioToolbox, VideoToolbox, AVFoundation iOS system frameworks are supported since v3.0ffmpeg -codecs ... DEV.L. h263p H.263+ / H.263-1998 / H.263 version 2 DEV.LS h264 H.264 / AVC / MPEG-4 AVC / MPEG-4 part 10 (decoders: h264 h264_v4l2m2m h264_qsv h264_cuvid ) (encoders: libx264 libx264rgb h264_nvenc h264_omx h264_qsv h264_v4l2m2m h264_vaapi nvenc nvenc_h264 ) D.VIL. hap Vidvox Hap DEV.L. hevc H.265 / HEVC (High Efficiency Video Coding) (decoders: hevc hevc_qsv hevc_v4l2m2m ...libaom-av1 - FFmpeg libaom-av1 libaom AV1 encoder wrapper. Requires the presence of the libaom headers and library during configuration. You need to explicitly configure the build with --enable-libaom. Options The wrapper supports the following standard libavcodec options: 'b' Set bitrate target in bits/second.FFmpeg在Linux平台下开发,但它同样也可以在其它操作系统环境中编译运行,包括Windows、Mac OS X等。 这个项目最早由Fabrice Bellard发起,2004年至2015年间由Michael Niedermayer主要负责维护。许多FFmpeg的开发人员都来自MPlayer项目,而且当前FFmpeg也是放在MPlayer项目组的服务器上。Segfault in latest libaom release when running through FFMPEG. I did, also included what GDB outputs when it segfaults as well as a stacktrace. On Mon, Aug 9, 2021. unread, Segfault in latest libaom release when running through FFMPEG."libaom" Flag Description; media-video/ffmpeg: Enables media-libs/libaom based AV1 codec support. All packages providing a "libaom" USE flag (1) media-video/ffmpeg; Gentoo Packages Database. Data as current of Mar 08, 2022 20:05:38 UTC Questions or comments? Please feel ...Apr 18, 2005 · FFmpeg is a very fast video and audio converter. It can also grab from a live audio/video source. FFplay is a very simple and portable media player using the FFmpeg libraries and the SDL library. Port by different authors. This software is distributed in two modes: This work is free software; you can redistribute it and/or modify it under the terms of the GNU General Public License as published by the Free Software Foundation; either version 2 of the License, or any later version.This work is distributed in the hope that it will be useful, but without any warranty; without even the implied warranty of merchantability or fitness for a particular purpose.Mar 28, 2022 · Message ID: [email protected]: State: New: Headers: show SVT-AV1: an open-source AV1 encoder and decoder - by Andrey Norkin, Joel Sole, Mariana Afonso, Kyle Swanson, Agata Opalach, Anush Moorthy, Anne Aaron. aom - Git at Google -. luziferius/av1transcoder - Transcode video files to the AV1 format using ffmpeg and libaom-av1. - luziferius/av1transcoder.recent ffmpeg with recent and enabled libaom-av1 (git master builds from around November 2019 for both ffmpeg and libaom-av1 work.) (A somewhat fast CPU and some gigabytes of free and writable disk space. The encoding process requires about the size of the final result for temporary data during the encoding process.)ffmpeg -codecs ... DEV.L. h263p H.263+ / H.263-1998 / H.263 version 2 DEV.LS h264 H.264 / AVC / MPEG-4 AVC / MPEG-4 part 10 (decoders: h264 h264_v4l2m2m h264_qsv h264_cuvid ) (encoders: libx264 libx264rgb h264_nvenc h264_omx h264_qsv h264_v4l2m2m h264_vaapi nvenc nvenc_h264 ) D.VIL. hap Vidvox Hap DEV.L. hevc H.265 / HEVC (High Efficiency Video Coding) (decoders: hevc hevc_qsv hevc_v4l2m2m ...FFmpeg -h encoder=libaom-av1 will list all the available options for the libaom-av1 encoder. Constant Quality Encoding. FFmpeg will do constant quality encoding if you specify a quality number with -crf. A lower number produces better quality, higher produces worse video quality at smaller file sizes. A value between 20 and 35 is advisable ...flutter_ffmpeg uses file system paths, it does not know what an assets folder or a project folder is. So you can't use resources on those folders directly, you need to provide full paths of those resources. flutter_ffmpeg requires ios deployment target to be at least 11.0 for Main releases and 9.3 for LTS releases. If you don't specify a ...Feb 20, 2021 · I'm trying to build FFmpeg (version 4.3.1) with --enable-libaom for Windows using MSYS and Microsoft Visual C++. Configure script says: ERROR: aom >= 1.0.0 not found using pkg-config. But I have libaom (built it from sources) and paths to it are specified: ffmpeg -y -i 'Ukidig-MASTER.mp4' -c:v libaom-av1 -b:v 1000k -minrate 500k -maxrate 2500k -bufsize 5000k -crf 28 -cpu-used 8 -threads 16 -g 60 -keyint_min 60 -tile-columns 4 -auto-alt-ref 1 -lag-in-frames 25 -frame-parallel 1 -row-mt 1 -pass 1 -an -strict experimental -y -movflags +faststart -f webm /dev/null && \ ffmpeg -y -i 'Ukidig-MASTER.mp4 ...Recompile ffmpeg. To enable ffmpeg to use the GPU codec provided by CUDA, ffmpeg must be recompiled to enable it to invoke CUDA through dynamic links. First compile and install the nv-codec-headers Library. Code: Select all.ffmpeg is used for video formats conversion. The version used is ffmpeg 3.3.5. FFMPEG's ffprobe is used to determine the width, height and number of frames of the videos. Python 3 timeit is used to mesure computing times. ... AV1 libaom: between q=12 and q=60, with a step of 4:As you can see there are very few options, I have tested libaom and it's so slow as to be unusable, and according to NetFlix SVT-AV1 is very close to libaom; I would love to test rav1e but I have never been able to build ffmpeg with rav1e, it fails every time, can't figure out what I am doing wrong. FFmpeg - ffplay tool includes libaom and so will can play AV1 4K directly Stream #0:0: Video: av1 (Main) , yuv420p(tv), 3840x2160, SAR 1:1 DAR 16:9, 29.97 fps, 29.97 tbr, 1k tbn, 1k tbc (default) Metadata: HANDLER_NAME : Core Media Video ENCODER : Lavc58.19.102FFmpeg and VLC do not automatically downmap colors from 10 -> 8 bit when capturing pictures. So take a screenshot with VLC or FFmpeg (ffmpeg -ss 60 -i GlassBlowing.mp4 -map 0:v -vframes 1 out.jpg) and if it looks washed out, that means it's using the expected bt.2020 color space. That trick does not tell you if it has HDR10 info, but it's a ...cd ~/ffmpeg_sources/ffmpeg ./ffmpeg -version ./ffmpeg -h encoder=libaom-av1 ./ffmpeg -h encoder=libsvtav1 ffmpeg -version ffmpeg -h encoder=libsvtav1 ffmpeg -h encoder=libaom-av1 You can download the build scripts at Build FFmpeg Build FFmpeg. GitHub Gist: instantly share code, notes, and snippets. 262588213843476Gist ReferencePost. by yaomtc » Thu Dec 12, 2019 12:02 am. I've enabled rpmfusion and epel, but when I try to install ffmpeg, this happens: Code: Select all. $ sudo dnf install ffmpeg [sudo] password for chris: Repository 'amdgpu-pro-local' is missing name in configuration, using id. Last metadata expiration check: 21:30:30 ago on Tue 10 Dec 2019 09:23:30 ...FFmpeg在Linux平台下开发,但它同样也可以在其它操作系统环境中编译运行,包括Windows、Mac OS X等。 这个项目最早由Fabrice Bellard发起,2004年至2015年间由Michael Niedermayer主要负责维护。许多FFmpeg的开发人员都来自MPlayer项目,而且当前FFmpeg也是放在MPlayer项目组的服务器上。我目前在使用的VLC media player (3.0.6)和PotPlayer (1.7.17508)都已经支持AV1的视频格式,内部通过ffmpeg使用的libaom-av1解码器进行解码。. 解码示例 :使用libaom-av1编码器把mp4文件中的av1视频格式解码为yuv的原始数据. ffmpeg -c:v libaom-av1 -i julin_5s_av1.mp4 -f rawvideo julin_5s_av1_yuv ...FFmpeg在Linux平台下开发,但它同样也可以在其它操作系统环境中编译运行,包括Windows、Mac OS X等。 这个项目最早由Fabrice Bellard发起,2004年至2015年间由Michael Niedermayer主要负责维护。许多FFmpeg的开发人员都来自MPlayer项目,而且当前FFmpeg也是放在MPlayer项目组的服务器上。Feb 20, 2021 · I'm trying to build FFmpeg (version 4.3.1) with --enable-libaom for Windows using MSYS and Microsoft Visual C++. Configure script says: ERROR: aom >= 1.0.0 not found using pkg-config. But I have libaom (built it from sources) and paths to it are specified: 1. Update to FFMPEG 4.3.2 2. Update Intel libva to version 2.10 and media drivers 2021Q1 3. Multiple depedency updates (libass, SVT-AV1, libaom, x264, libbluray, libvpx) Date 2021-06-27 02:08:32.613792 Architectures新バージョンのFFmpegは「libaom」に対応でき、AV1変換が可能となりました。保存したライブ動画はAV1の場合に、FFmpegを使ってAV1をMP4など再生できるファイルに変換できます。ではこの記事でAV1エンコードをFFmpegで完成できる方法をご紹介します。On 03-04-2019 06:19 AM, Sam John via ffmpeg-devel wrote: ... James, Thanks for the review. I am sending the updated patch now. libaom-av1 enables global-motion/intrabc by default. These options were added to enable/disable these tools to reduce the complexity. The default value is set to -1.FFmpeg is an open-source project that consists of a considerable range of libraries. These libraries are designed to deal with a variety of multimedia formats, whether that be an image, video, or audio format.flutter_ffmpeg uses file system paths, it does not know what an assets folder or a project folder is. So you can't use resources on those folders directly, you need to provide full paths of those resources. flutter_ffmpeg requires ios deployment target to be at least 11.0 for Main releases and 9.3 for LTS releases. If you don't specify a ...FFmpeg在Linux平台下开发,但它同样也可以在其它操作系统环境中编译运行,包括Windows、Mac OS X等。 这个项目最早由Fabrice Bellard发起,2004年至2015年间由Michael Niedermayer主要负责维护。许多FFmpeg的开发人员都来自MPlayer项目,而且当前FFmpeg也是放在MPlayer项目组的服务器上。 FFmpeg -h encoder=libaom-av1 will list all the available options for the libaom-av1 encoder. Constant Quality Encoding. FFmpeg will do constant quality encoding if you specify a quality number with -crf. A lower number produces better quality, higher produces worse video quality at smaller file sizes. A value between 20 and 35 is advisable ...ffmpeg对mp4文件进行ts切片并生成m3u8文件_weixin_34380948的博客-程序员宝宝 技术标签: python java ffmpeg 2019独角兽企业重金招聘Python工程师标准>>>libsvtav1 AV1 编码速度比 libaom 大大提升. libaom 编码速度 speed=0.0178x 真的无法忍受这个速度,每秒只能处理 2-3个帧. 相比 libaom ,libsvtav1 速度有所提升 speed=0.0966x 差不多提升了 10倍左右. ffmpeg 现在支持 libsvtav1,只有 x64 才能用,x86 不支持.Most users should use the static build, while developers need to use the shared builds (text copied & modified from Zeranoe). All builds are licensed as GPL 3.0. For macOS builds, please check out evermeet.cx. FYI, it's easy to build FFmpeg for macOS using homebrew - I've written about it here.Encoded a .png screenshot to .png with FFmpeg. Encoded this screenshot to a AV1 with -c:v libaom-av1 -cpu-used 0, once with -lossless 1 and once without. Encoded these .mp4's back to .png's. Repeated step 2 and 3 once more. This resulted in 5 .png's, the input and two output files from both the lossy and lossless.ffmpeg ts to mp4 2021-07-26 最近更新的文章/教程 更多 老徐和阿珍的故事:强引用、软引用、弱引用、虚引用,傻傻分不清楚 2022-03-26ffmpeg.exe -i 00.mp4 -strict -2 -c:v libaom-av1 -b:v 2000k -crf 30 -cpu-used 4 -threads 8 -f matroska 00.mkv. ffmepg 中目前 libaom-av1 Codec is experimental , 缺点是普通 pc 上 编码速度非常慢; av1 还没有完全成熟, 在等几年很多硬件厂商才支持该格式.OPTIONS_DEFINE= ALSA AMR_NB AMR_WB AOM ARIBB24 ASM ASS BS2B CACA CDIO \ CODEC2 DAV1D DAVS2 DC1394 DEBUG DOCS DRM FDK_AAC FLITE \ FONTCONFIG FREETYPE FREI0R FRIBIDI GLSLANG GME GSM ICONV ILBC \ JACK KLVANC KVAZAAR LADSPA LAME LENSFUN LIBBLURAY LIBRSVG2 \ LIBXML2 LTO LV2 MFX MODPLUG MYSOFA OPENAL OPENCL OPENGL \ OPENH264 OPENJPEG OPENMPT OPENVINO ...ffmpeg版本是2021年8月18日自动build的版本,CPU为10700。 libaom-av1 time ./ffmpeg.exe -s 1920x800 -i test.yuv -c:v libaom-av1 -crf 32 -cpu-used 5 libaom-av1.mp4 frame = 786 fps = 2.4 q = 0.0 Lsize = 5997kB time = 00:00:31.40 bitrate = 1564.7kbits/s speed = 0.0949x video:5995kB audio:0kB subtitle:0kB other streams:0kB global headers ... Post. by yaomtc » Thu Dec 12, 2019 12:02 am. I've enabled rpmfusion and epel, but when I try to install ffmpeg, this happens: Code: Select all. $ sudo dnf install ffmpeg [sudo] password for chris: Repository 'amdgpu-pro-local' is missing name in configuration, using id. Last metadata expiration check: 21:30:30 ago on Tue 10 Dec 2019 09:23:30 ...Mar 28, 2022 · Message ID: [email protected]: State: New: Headers: show libaom-av1 - FFmpeg libaom-av1 libaom AV1 encoder wrapper. Requires the presence of the libaom headers and library during configuration. You need to explicitly configure the build with --enable-libaom. Options The wrapper supports the following standard libavcodec options: 'b' Set bitrate target in bits/second.Post. by yaomtc » Thu Dec 12, 2019 12:02 am. I've enabled rpmfusion and epel, but when I try to install ffmpeg, this happens: Code: Select all. $ sudo dnf install ffmpeg [sudo] password for chris: Repository 'amdgpu-pro-local' is missing name in configuration, using id. Last metadata expiration check: 21:30:30 ago on Tue 10 Dec 2019 09:23:30 ...Feb 09, 2021 · Compile FFmpeg + libaom (AOM AV1) + libsvtav1 (Scalable Video Technology, SVT AV1) Prepare Compiler apt-get install -y autoconf automake build-essential cmake git-core libass-dev libfreetype6-dev libgnutls28-dev libsdl2-dev libtool libva-dev libvdpau-dev libvorbis-dev libxcb1-dev libxcb-shm0-dev libxcb-xfixes0-dev meson ninja-build pkg-config ... Toggle navigation Patchwork FFmpeg Patches Bundles About this project Login; Register; Mail settings; 35025 diff mbox series [FFmpeg-devel,1/3] avcodec/libaomenc: Add parameter for avif single image encoding. Message ID: [email protected]: State: New: Headers: show ...Hi, FFmpeg 5.0 "Lorentz", a new major release, is now available! For this long-overdue release, a major effort underwent to remove the old encode/decode APIs and replace them with an N:M-based API, the entire libavresample library was removed, libswscale has a new, easier to use AVframe-based API, the Vulkan code was much improved, many new filters were added, including libplacebo integration ...OPTIONS_DEFINE= ALSA AMR_NB AMR_WB AOM ARIBB24 ASM ASS BS2B CACA CDIO \ CODEC2 DAV1D DAVS2 DC1394 DEBUG DOCS DRM FDK_AAC FLITE \ FONTCONFIG FREETYPE FREI0R FRIBIDI GLSLANG GME GSM ICONV ILBC \ JACK KLVANC KVAZAAR LADSPA LAME LENSFUN LIBBLURAY LIBRSVG2 \ LIBXML2 LTO LV2 MFX MODPLUG MYSOFA OPENAL OPENCL OPENGL \ OPENH264 OPENJPEG OPENMPT OPENVINO ...Today I will build FFmpeg with minimalist module. Objective is compile FFmpeg with libx264 (H.264 support) and libssl (RTMPS support) only. Install tools & Dependencies package apt-get install \ autoconf \ automake \ build-essential \ cmake \ git \ pkg-config \ wget \ yasm nasm libssl-dev Prepare module I recommend "FFmpeg Static Build" collected byAttached is the sample output file which is producing the errors: output_withtiles.ivf.tar.gz which when decoded correctly should produce a mostly-black frame. The text was updated successfully, but these errors were encountered: shssoichiro added the bug label on Sep 24, 2019. Copy link.Configuration Options: ===> The following configuration options are available for ffmpeg-4.4.1_9,1: ALSA=off: ALSA audio architecture support AMR_NB=off: AMR Narrow Band audio support (opencore) AMR_WB=off: AMR Wide Band audio support (opencore) AOM=on: AV1 video encoding/decoding via libaom ARIBB24=off: ARIB text and caption decoding via libaribb24 ASM=on: Use optimized assembly code ASS=on ...Most users should use the static build, while developers need to use the shared builds (text copied & modified from Zeranoe). All builds are licensed as GPL 3.0. For macOS builds, please check out evermeet.cx. FYI, it’s easy to build FFmpeg for macOS using homebrew – I’ve written about it here. Dubbed "Rao," FFmpeg 4.4 is here about ten months after FFmpeg 4.3 as a major release that introduces VDPAU accelerated HEVC 10bit and 12bit decoding, VDPAU accelerated VP9 10bit and 12bit decoding, DXVA2/D3D11VA hardware accelerated AV1 decoding, Intel QSV-accelerated AV1 decoding, NVDEC AV1 hardware accelerated decoding, as well as AV1 ...For a list of options, run ffmpeg -h encoder=libaom-av1. Note: Users of libaom older than version 2.0. Other Useful How-to Guides. Download and Install WebM Codec for Easier Video Playback. Free download WebM codec packs on Windows and Mac for easier editing on Premiere Pro or better video playback on your media players.Apr 03, 2019 · James, Thanks for the review. I am sending the updated patch now. libaom-av1 enables global-motion/intrabc by default. These options were added to enable/disable these tools to reduce the complexity. The default value is set to -1. When you encode using libaom, ffmpeg log will have a line like this, [libaom-av1 @ 0000000003990500] 1..-1475-g7c64a0dca - Gyan. Mar 21, 2019 at 8:39 | Show 7 more comments. Sorted by: Reset to defaultFFmpeg is available in the official repositories of Ubuntu, so you can install it using command: $ sudo apt-get install ffmpeg. FFmpeg in the official repositories might be bit outdated. To install most recent version, use the FFmpeg PPA. $ sudo add-apt-repository ppa:mc3man/ trusty- media. $ sudo apt-get update.Previously I was able to stream my camera using ffmpeg and libx264 encoder/decoder, it was said since this is software base, it will most likely cause a delay, thus I followed a tutorial in getting my h264_mmal & h264_omx libraries installed for ffmpeg, see this ffmpeg setup script adapted from this and this. My script simply adds:新バージョンのFFmpegは「libaom」に対応でき、AV1変換が可能となりました。保存したライブ動画はAV1の場合に、FFmpegを使ってAV1をMP4など再生できるファイルに変換できます。ではこの記事でAV1エンコードをFFmpegで完成できる方法をご紹介します。新バージョンのFFmpegは「libaom」に対応でき、AV1変換が可能となりました。保存したライブ動画はAV1の場合に、FFmpegを使ってAV1をMP4など再生できるファイルに変換できます。ではこの記事でAV1エンコードをFFmpegで完成できる方法をご紹介します。FFmpeg is a popular tool amongst video developers. To facilitate the evaluation and utilisation of LCEVC as a codec, V-Nova LCEVC libraries are supported by a build of FFmpeg. This document describes how to use LCEVC in this specific build. FFmpeg is available for both Windows and Linux. The examples throughout this document are for Windows but ...Today I will build FFmpeg with minimalist module. Objective is compile FFmpeg with libx264 (H.264 support) and libssl (RTMPS support) only. Install tools & Dependencies package apt-get install \ autoconf \ automake \ build-essential \ cmake \ git \ pkg-config \ wget \ yasm nasm libssl-dev Prepare module I recommend "FFmpeg Static Build" collected byAV1 Support through libaom; AMD AMF H.264 and HEVC encoders; And many other new filters, and accelerated code path improvements. How to Install FFmpeg 4.0 in Ubuntu: FFmpeg 4.0.2 is available in Ubuntu Software via SNAP package (Runs in sandbox).Installs ffmpeg with libaom and libx265 enabled for av1 and hevc encoding (tested on Ubuntu 16.04) Raw install-ffmpeg.sh #!/usr/bin/env bash # Installs ffmpeg from source (HEAD) with libaom and libx265, as well as a few # other common libraries # binary will be at ~/bin/ffmpeg sudo apt update && sudo apt upgrade -y mkdir -p ~ /ffmpeg_sources ~ /binThis work is free software; you can redistribute it and/or modify it under the terms of the GNU General Public License as published by the Free Software Foundation; either version 2 of the License, or any later version.This work is distributed in the hope that it will be useful, but without any warranty; without even the implied warranty of merchantability or fitness for a particular purpose.Includes FFmpeg v4.4-dev-416 with fontconfig v2.13.92, freetype v2.10.2, fribidi v1.0.9, kvazaar v2.0.0, libaom v1..-errata1-avif-110, libass v0.14.0, libiconv v1 ...Nov 22, 2016 · Code: Select all build: ffmpeg-4.3-amd64-static.tar.xz version: 4.3 gcc: 8.3.0 yasm: 1.3.0.36.ge2569 nasm: 2.14.02 libaom: 2.0.0-366-g7de6531f8 libass: 0.14.0 libgme ... FFMpeg allows to crop a given media file in any dimension of our choice. The syntax to crop a video file is given below: ffmpeg -i input.mp4 -filter:v "crop=w:h:x:y" output.mp4. Here, input.mp4 - source video file.-filter:v - Indicates the video filter. crop - Indicates crop filter. w - Width of the rectangle that we want to crop from the ..._____ _____ / ____// ____/____ ___ ____ ___ ____ _ / /_ / /_ / __ `__ \ / __ \ / _ \ / __ `/ / __/ / __/ / / / / / // /_/ // __// /_/ / /_/ /_/ /_/ /_/ /_// .___/ \__ ...Hi I have just compiled SRT for my ffmpeg and its very usefull between my raspberrypi4 with OMX (Rasbian) to OBS. It works fine but I would like to try out the RIST protocol.ffm but I cant see RIST in my ffmpeg -protocols and possible it may needs to be download and compiled so I can really...Most users should use the static build, while developers need to use the shared builds (text copied & modified from Zeranoe). All builds are licensed as GPL 3.0. For macOS builds, please check out evermeet.cx. FYI, it’s easy to build FFmpeg for macOS using homebrew – I’ve written about it here. Options may be set by specifying - option value in the FFmpeg tools, or by setting the value explicitly in the AVCodecContext options or using the libavutil/opt.h API for programmatic use. The list of supported options follow: b integer (encoding,audio,video) Set bitrate in bits/s. Default value is 200K. ab integer (encoding,audio)Compile FFMPEG on WSL 2 Linux and link it to Windows I compile FFMPEG from source built with CUDA support in Linux. Now I want to link the compiled FFMPEG in WSL 2 Ubuntu to Windows (build 19640 Insider) so that Windows can detect FFMPEG CUDA.Mar 06, 2022 · Installs ffmpeg with libaom and libx265 enabled for av1 and hevc encoding (tested on Ubuntu 16.04) Raw install-ffmpeg.sh #!/usr/bin/env bash # Installs ffmpeg from source (HEAD) with libaom and libx265, as well as a few # other common libraries # binary will be at ~/bin/ffmpeg sudo apt update && sudo apt upgrade -y mkdir -p ~ /ffmpeg_sources ~ /bin FFMpeg allows to crop a given media file in any dimension of our choice. The syntax to crop a video file is given below: ffmpeg -i input.mp4 -filter:v "crop=w:h:x:y" output.mp4. Here, input.mp4 - source video file.-filter:v - Indicates the video filter. crop - Indicates crop filter. w - Width of the rectangle that we want to crop from the ... Dubbed "Rao," FFmpeg 4.4 is here about ten months after FFmpeg 4.3 as a major release that introduces VDPAU accelerated HEVC 10bit and 12bit decoding, VDPAU accelerated VP9 10bit and 12bit decoding, DXVA2/D3D11VA hardware accelerated AV1 decoding, Intel QSV-accelerated AV1 decoding, NVDEC AV1 hardware accelerated decoding, as well as AV1 ...You're running a release of ffmpeg that was forked from master in 2018. AV1 is a new format, so try the current git master (version), it is probably going to work a lot better. I did try that. Problem is, with libaom-av1 and ffmpeg from the latest git, it segfaults after encoding around 50 frames._____ _____ / ____// ____/____ ___ ____ ___ ____ _ / /_ / /_ / __ `__ \ / __ \ / _ \ / __ `/ / __/ / __/ / / / / / // /_/ // __// /_/ / /_/ /_/ /_/ /_/ /_// .___/ \__ ...Experiment one. Using a static build of ffmpeg, OS=Debian, running in wsl1. according to that page build info, libaom version is: libaom: 3.1.-270-g42a875ffe. ffmpegStatic -i input.mov -c:v libaom-av1 -cpu-used 8 -row-mt true -threads 0 -crf 24 -tile-columns 1 -tile-rows 0 out.mp4. Encodes @ 2.7 fps.解説. FFmpegは、単体ではGUIを持たないツールでUNIX コマンドのように振る舞う。 その為、対話式アプリケーションとして使用される場合、フロントエンドを用いる事も多い。 コマンドラインから実行するCUIとして配布されているのは、ユーザが必要とすればフロントエンドを利用でき ...Most users should use the static build, while developers need to use the shared builds (text copied & modified from Zeranoe). All builds are licensed as GPL 3.0. For macOS builds, please check out evermeet.cx. FYI, it's easy to build FFmpeg for macOS using homebrew - I've written about it here.Encoded a .png screenshot to .png with FFmpeg. Encoded this screenshot to a AV1 with -c:v libaom-av1 -cpu-used 0, once with -lossless 1 and once without. Encoded these .mp4's back to .png's. Repeated step 2 and 3 once more. This resulted in 5 .png's, the input and two output files from both the lossy and lossless.To install FFmpeg with support for libaom-av1, look at the Compilation Guides and compile FFmpeg with the --enable-libaom option. libaom offers the following rate-control modes which determine the quality and file size obtained: Constant quality Constrained quality 2-pass average bitrate 1-pass average bitrateFastFlix is a simple and friendly GUI for encoding videos. FastFlix keeps HDR10 metadata for x265, which will be expanded to AV1 libraries when available. It needs FFmpeg (version 4.3 or greater) under the hood for the heavy lifting, and can work with a variety of encoders. Check out the FastFlix github wiki for help or more details!Media in category "FFmpeg" The following 26 files are in this category, out of 26 total.ffmpeg is used for video formats conversion. The version used is ffmpeg 3.3.5. FFMPEG's ffprobe is used to determine the width, height and number of frames of the videos. Python 3 timeit is used to mesure computing times. ... AV1 libaom: between q=12 and q=60, with a step of 4:_____ _____ / ____// ____/____ ___ ____ ___ ____ _ / /_ / /_ / __ `__ \ / __ \ / _ \ / __ `/ / __/ / __/ / / / / / // /_/ // __// /_/ / /_/ /_/ /_/ /_/ /_// .___/ \__ ...When you encode using libaom, ffmpeg log will have a line like this, [libaom-av1 @ 0000000003990500] 1..-1475-g7c64a0dca - Gyan. Mar 21, 2019 at 8:39 | Show 7 more comments. Sorted by: Reset to defaultFFMpeg allows to crop a given media file in any dimension of our choice. The syntax to crop a video file is given below: ffmpeg -i input.mp4 -filter:v "crop=w:h:x:y" output.mp4. Here, input.mp4 - source video file.-filter:v - Indicates the video filter. crop - Indicates crop filter. w - Width of the rectangle that we want to crop from the ...libaom-av1 - FFmpeg libaom-av1 libaom AV1 encoder wrapper. Requires the presence of the libaom headers and library during configuration. You need to explicitly configure the build with --enable-libaom. Options The wrapper supports the following standard libavcodec options: 'b' Set bitrate target in bits/second. kyrios123 added a revision: D6716: Update ffmpeg to 4.1.4 & enable libdrm. Jul 9 2019, 4:22 PM JoshStrobl closed this task as Resolved by committing R742:b0a748bd9a6d: Update ffmpeg to 4.1.4 & enable libdrm .6 hours ago · The libaom PDM only accepts video/av1, so always produce a video/av1 MIME type from a codecs=av01 string. Now you're able to enjoy AV1 videos normally. -Standard zur Videokompression. Full support can be gained by following the FFmpeg Trac Compile Guide and has been possible since version 4. Introduction. Help with av01 codec: r/AV1 - Reddit. git.videolan.org Git - ffmpeg.git/commitdiff. This fixes linking errors where variables cannot be correctly linked in from an external shared library such as with msvc (requires dllimport which is not used by libaom). Instead just call the function that returns the same variable. Signed-off-by: Matt Oliver <[email protected]>.libvpx is a free software video codec library from Google and the Alliance for Open Media (AOMedia). It serves as the reference software implementation for the VP8 and VP9 video coding formats, and for AV1 a special fork named libaom that was stripped of backwards compatibility.. As free software it is published also in source code under the terms of the revised BSD license.ffmpeg Tools for transcoding, streaming and playing of multimedia files ffmpeg-doc Documentation of the FFmpeg multimedia framework libavcodec-dev FFmpeg library with de/encoders for audio/video codecs - development files libavcodec-extra FFmpeg library with extra codecs (metapackage) libavcodec-extra58FS#66796 - [ffmpeg] libaom.so. - out of date? Attached to Project: Arch Linux. Opened by James (thx1138) - Wednesday, 27 May 2020, 03:41 GMT. Last edited by Maxime Gauduin (Alucryd) - Tuesday, 21 July 2020, 12:11 GMT.[FFmpeg-devel] gdigrab: added option to select window by HWND. [FFmpeg-devel] gdigrab: added option to select window by HWND. - - - - 4--2021-10-22: [email protected]: New [FFmpeg-devel,v2] libavformat/mov: ffmpeg can't read mp4 track title metadata [FFmpeg-devel,v2] libavformat/mov: ffmpeg can't read mp4 track title metadata - - - - 4--FFmpeg is a video and audio converter. It supports many codecs and has many useful functions to deal with conversion. The most important thing is that FFmpeg is FREE for personal use. You can compile your own FFmpeg binary file(if you want, please use the FFmpeg source code on our GitHub) called customized FFmpeg and use it via this application.ffmpeg Tools for transcoding, streaming and playing of multimedia files ffmpeg-doc Documentation of the FFmpeg multimedia framework libavcodec-dev FFmpeg library with de/encoders for audio/video codecs - development files libavcodec-extra FFmpeg library with extra codecs (metapackage) libavcodec-extra58ffmpeg -i input.mp4 -c:v libaom-av1 -strict -2 -b:v 66150 -c:a libfdk_aac -ar 22050 -b:a 22050 -ac 1 -maxrate 66150 -bufsize 66150 -vf scale=720:-1 -movflags +faststart output.mp4 However, my final video has a 95kbps bitrate: Duration: 00:01:09.73, start: 0.000000, bitrate: 95 kb/sFFmpeg build also includes x264, x265, VP9, VMAF, LAME, AAC, OPUS; Download# The docker image is available @ Docker Hub - singhkays/ffmpeg-av1-libaom. Usage# If you haven't used docker containers before, I suggest reading the below links first: Get started with Docker; Install Docker Community Engine; Running the AV1 docker container#Feb 09, 2021 · Compile FFmpeg + libaom (AOM AV1) + libsvtav1 (Scalable Video Technology, SVT AV1) Prepare Compiler apt-get install -y autoconf automake build-essential cmake git-core libass-dev libfreetype6-dev libgnutls28-dev libsdl2-dev libtool libva-dev libvdpau-dev libvorbis-dev libxcb1-dev libxcb-shm0-dev libxcb-xfixes0-dev meson ninja-build pkg-config ... I definitely got better quality with rav1e than libaom (via ffmpeg), before I gave up on the latter altogether. clouddrover 12 months ago Here are some measured results. rav1e is worse than libaom and SVT-AV1:AOMedia libaom 3.0.0 was released on Tuesday by Google engineers as this reference AV1 video encoder. The 3.0 release delivers on compression efficiency improvements, speed improvements for the real-time mode, new APIs, scaling optimizations, multi-threading performance boosts under the real-time mode, and other improvements.解説. FFmpegは、単体ではGUIを持たないツールでUNIX コマンドのように振る舞う。 その為、対話式アプリケーションとして使用される場合、フロントエンドを用いる事も多い。 コマンドラインから実行するCUIとして配布されているのは、ユーザが必要とすればフロントエンドを利用でき ...AV1 decoding and encoding is provided via libaom if your ffmpeg build has the library linked. In order to link the library, compile ffmpeg with --enable-libaom (see the compilation guides ). The basic syntax is: ffmpeg -i input.mp4 -c:v libaom-av1 -strict -2 output.avi. (Note: -strict -2 or -strict experimental is required since the encoder is ...Most users should use the static build, while developers need to use the shared builds (text copied & modified from Zeranoe). All builds are licensed as GPL 3.0. For macOS builds, please check out evermeet.cx. FYI, it’s easy to build FFmpeg for macOS using homebrew – I’ve written about it here. Segfault in latest libaom release when running through FFMPEG. I did, also included what GDB outputs when it segfaults as well as a stacktrace. On Mon, Aug 9, 2021. unread, Segfault in latest libaom release when running through FFMPEG.Nov 22, 2016 · Code: Select all build: ffmpeg-4.3-amd64-static.tar.xz version: 4.3 gcc: 8.3.0 yasm: 1.3.0.36.ge2569 nasm: 2.14.02 libaom: 2.0.0-366-g7de6531f8 libass: 0.14.0 libgme ... Then pass --enable-libaom to configure to enable it. 1.2 AMD AMF/VCE FFmpeg can use the AMD Advanced Media Framework library for accelerated H.264 and HEVC(only windows) encoding on hardware with Video Coding Engine (VCE).As you can see there are very few options, I have tested libaom and it's so slow as to be unusable, and according to NetFlix SVT-AV1 is very close to libaom; I would love to test rav1e but I have never been able to build ffmpeg with rav1e, it fails every time, can't figure out what I am doing wrong.I am trying to compile FFMPEG and Libaom from source apparently because the gcc and g++ compilers in Ubuntu 18.04 by default has enabled the following option by default: --enable-default-pie $ gcc -v Using built-in specs.ffmpeg -y -i 'Ukidig-MASTER.mp4' -c:v libaom-av1 -b:v 1000k -minrate 500k -maxrate 2500k -bufsize 5000k -crf 28 -cpu-used 8 -threads 16 -g 60 -keyint_min 60 -tile-columns 4 -auto-alt-ref 1 -lag-in-frames 25 -frame-parallel 1 -row-mt 1 -pass 1 -an -strict experimental -y -movflags +faststart -f webm /dev/null && \ ffmpeg -y -i 'Ukidig-MASTER.mp4 ...Gentoo Packages Database. FFmpeg 5.0 ABI/API changes break many packages. Masking for tracker/tinderbox.Render Animation¶. Render animation allows you to render your animation to an image sequence, .gif, .mp4, .mkv, or .ogg file. It replaces Export Animation.. For rendering to an animated file format, Krita will first render to a PNG sequence and then use FFmpeg, which is really good at encoding into video files, to render that sequence to an animated file format.libaom:AV1 编码器; 音频编码器如下。 libfdk-aac; aac; 下面的命令可以查看 FFmpeg 已安装的编码器。 $ ffmpeg -encoders 二、FFmpeg 的使用格式. FFmpeg 的命令行参数非常多,可以分成五个部分。 $ ffmpeg {1} {2} -i {3} {4} {5} 上面命令中,五个部分的参数依次如下。 全局参数 ...libaom, the AOMedia codec in FFmpeg, v 2.0.0 aomenc is AOMedia's standalone encoding executable and is available here. During the testing process, I sent questions and encoding strings to Google, which was kind enough to lend assistance. SVT-AV1 is an AV1 codec implementation created by Intel and Netflix and is available on GitHub.Compile FFMPEG on WSL 2 Linux and link it to Windows I compile FFMPEG from source built with CUDA support in Linux. Now I want to link the compiled FFMPEG in WSL 2 Ubuntu to Windows (build 19640 Insider) so that Windows can detect FFMPEG CUDA.Треклист: 01-Chuck Wein Introduction 02-Hey Baby (New Rising Sun) 03-In From The Storm 04-Foxy Lady 05-Hear My Train A-Comin' 06-Voodoo Child (Slight Return)- ffmpeg -benchmark_all option - super2xsai filter ported from libmpcodecs - add libavresample audio conversion library for compatibility - MicroDVD decoder - Avid Meridien (AVUI) encoder and decoder - accept + prefix to -pix_fmt option to disable automatic conversions. - complete audio filtering in libavfilter and ffmpeg - add fps filter ...kyrios123 added a revision: D6716: Update ffmpeg to 4.1.4 & enable libdrm. Jul 9 2019, 4:22 PM JoshStrobl closed this task as Resolved by committing R742:b0a748bd9a6d: Update ffmpeg to 4.1.4 & enable libdrm .To put it simply, FFmpeg is awesome, and every user should have FFmpeg installed in Windows. In this quick guide, let me show how to download and properly install FFmpeg in Windows 10, 7, and 8. When I say "install," I'm talking about adding FFmpeg to the Windows path so that it is easier to access via the Command Prompt or other command-line applications like PowerShell.Compile FFMPEG on WSL 2 Linux and link it to Windows I compile FFMPEG from source built with CUDA support in Linux. Now I want to link the compiled FFMPEG in WSL 2 Ubuntu to Windows (build 19640 Insider) so that Windows can detect FFMPEG CUDA.ffmpeg is used for video formats conversion. The version used is ffmpeg 3.3.5. FFMPEG's ffprobe is used to determine the width, height and number of frames of the videos. Python 3 timeit is used to mesure computing times. ... AV1 libaom: between q=12 and q=60, with a step of 4:[FFmpeg-devel] gdigrab: added option to select window by HWND. [FFmpeg-devel] gdigrab: added option to select window by HWND. - - - - 4--2021-10-22: [email protected]: New [FFmpeg-devel,v2] libavformat/mov: ffmpeg can't read mp4 track title metadata [FFmpeg-devel,v2] libavformat/mov: ffmpeg can't read mp4 track title metadata - - - - 4--Sep 24, 2020 · 新バージョンのFFmpegは「libaom」に対応でき、AV1変換が可能となりました。保存したライブ動画はAV1の場合に、FFmpegを使ってAV1をMP4など再生できるファイルに変換できます。ではこの記事でAV1エンコードをFFmpegで完成できる方法をご紹介します。 Support for AV1 in WebM is a bit postponted because libaom's WebM muxer isn't updated to the latest spec yet, see this bug for details. But FFmpeg already does the right thing so there should be nothing wrong with WebM videos it produces. You can also use MP4 container to store your AV1 video in (pass -f mp4 option to ffmpeg for that). It ..."libaom" Flag Description; media-video/ffmpeg: Enables media-libs/libaom based AV1 codec support. All packages providing a "libaom" USE flag (1) media-video/ffmpeg; Gentoo Packages Database. Data as current of Mar 08, 2022 20:05:38 UTC Questions or comments? Please feel ...ffmpeg is used for video formats conversion. The version used is ffmpeg 3.3.5. FFMPEG's ffprobe is used to determine the width, height and number of frames of the videos. Python 3 timeit is used to mesure computing times. ... AV1 libaom: between q=12 and q=60, with a step of 4:libsvtav1 AV1 编码速度比 libaom 大大提升. libaom 编码速度 speed=0.0178x 真的无法忍受这个速度,每秒只能处理 2-3个帧. 相比 libaom ,libsvtav1 速度有所提升 speed=0.0966x 差不多提升了 10倍左右. ffmpeg 现在支持 libsvtav1,只有 x64 才能用,x86 不支持.Post. by yaomtc » Thu Dec 12, 2019 12:02 am. I've enabled rpmfusion and epel, but when I try to install ffmpeg, this happens: Code: Select all. $ sudo dnf install ffmpeg [sudo] password for chris: Repository 'amdgpu-pro-local' is missing name in configuration, using id. Last metadata expiration check: 21:30:30 ago on Tue 10 Dec 2019 09:23:30 ...Apr 03, 2019 · James, Thanks for the review. I am sending the updated patch now. libaom-av1 enables global-motion/intrabc by default. These options were added to enable/disable these tools to reduce the complexity. The default value is set to -1. Check the version of FFmpeg installed on your RHEL/CentOS system using the command. $ rpm -qi ffmpeg $ ffmpeg -version. Output. Step 4: Using FFmpeg on CentOS / RHEL 8. The usage of ffmpeg depends on individual projects and desired output. Refer to the official FFmpeg documentation for an in-depth description of its features and examples.ffmpeg ts to mp4 2021-07-26 最近更新的文章/教程 更多 老徐和阿珍的故事:强引用、软引用、弱引用、虚引用,傻傻分不清楚 2022-03-26FastFlix is a simple and friendly GUI for encoding videos. FastFlix keeps HDR10 metadata for x265, which will be expanded to AV1 libraries when available. It needs FFmpeg (version 4.3 or greater) under the hood for the heavy lifting, and can work with a variety of encoders. Check out the FastFlix github wiki for help or more details!The description of FFmpeg CLI App. This is an application which can help you edit audio and video by using FFmpeg with Command Line Interface on Android devices. FFmpeg is a video and audio converter. It supports many codecs and has many useful functions to deal with conversion. The most important thing is that FFmpeg is FREE for personal use.ffmpeg -i FILE.mov -af silencedetect=noise=0.0001 -f null - 2>&1. I think I would need to check if the last silence_duration value is equal to the duration. There seems to be different rounding of decimal points depending on the values for FFMPEG's output (duration = 15.67, silence_duration=15.6667), so whatever accuracy is possible given these ...ffmpeg ts to mp4 2021-07-26 最近更新的文章/教程 更多 老徐和阿珍的故事:强引用、软引用、弱引用、虚引用,傻傻分不清楚 2022-03-26Most users should use the static build, while developers need to use the shared builds (text copied & modified from Zeranoe). All builds are licensed as GPL 3.0. For macOS builds, please check out evermeet.cx. FYI, it's easy to build FFmpeg for macOS using homebrew - I've written about it here.Or just omit the option entirely, as libdav1d and libaom are there for only one reason: making sure FFMS2 can open AV1 files. Files distributed as AV1 are still relatively niche, so it's not critical for a functioning source filter, it's just nice to have.FFmpeg is available in the official repositories of Ubuntu, so you can install it using command: $ sudo apt-get install ffmpeg. FFmpeg in the official repositories might be bit outdated. To install most recent version, use the FFmpeg PPA. $ sudo add-apt-repository ppa:mc3man/ trusty- media. $ sudo apt-get update.FFmpeg build also includes x264, x265, VP9, VMAF, LAME, AAC, OPUS; Download# The docker image is available @ Docker Hub - singhkays/ffmpeg-av1-libaom. Usage# If you haven't used docker containers before, I suggest reading the below links first: Get started with Docker; Install Docker Community Engine; Running the AV1 docker container# Nov 22, 2016 · Code: Select all build: ffmpeg-4.3-amd64-static.tar.xz version: 4.3 gcc: 8.3.0 yasm: 1.3.0.36.ge2569 nasm: 2.14.02 libaom: 2.0.0-366-g7de6531f8 libass: 0.14.0 libgme ... ffmpeg不生成幻灯片放映,ffmpeg,slideshow,Ffmpeg,Slideshow,我需要一些关于ffmpeg的帮助。我根本无法破解这个。我有7个png文件准备好了。我需要把它做成幻灯片。但是mkv制作了节目并结束了。Feb 20, 2021 · I'm trying to build FFmpeg (version 4.3.1) with --enable-libaom for Windows using MSYS and Microsoft Visual C++. Configure script says: ERROR: aom >= 1.0.0 not found using pkg-config. But I have libaom (built it from sources) and paths to it are specified: Gentoo Packages Database. FFmpeg 5.0 ABI/API changes break many packages. Masking for tracker/tinderbox.OPTIONS_DEFINE= ALSA AMR_NB AMR_WB AOM ARIBB24 ASM ASS BS2B CACA CDIO \ CODEC2 DAV1D DAVS2 DC1394 DEBUG DOCS DRM FDK_AAC FLITE \ FONTCONFIG FREETYPE FREI0R FRIBIDI GLSLANG GME GSM ICONV ILBC \ JACK KLVANC KVAZAAR LADSPA LAME LENSFUN LIBBLURAY LIBRSVG2 \ LIBXML2 LTO LV2 MFX MODPLUG MYSOFA OPENAL OPENCL OPENGL \ OPENH264 OPENJPEG OPENMPT OPENVINO ...FFmpeg Static Builds. Welcome! Here you'll find the latest versions of FFmpeg for Linux kernels 3.2.0 and up. For installation instructions please read the FAQ. Note: it's highly recommended to use git master builds, because bug fixes and other improvements are added daily. All static builds available here are licensed under the GNU General ...rpms / ffmpeg. Clone. Source Code. GIT. Source; Issues ; Pull Requests 0 ... hevc_qsv # hardware hevc_v4l2m2m # hardware hevc_vaapi # hardware huffyuv # trivial+zlib jpegls jpeg2000 libaom # libaom libaom_av1 # libaom libcodec2 # codec2 libgsm # libgsm libmp3lame # lame libopenh264 # openh264_dlopen libopenjpeg # openjpeg libopus # opus ...FFmpeg is an open source program of the foundation FFmepg.org providing a comprehensive set of methods to manipulate images and videos. Animator uses FFmpeg to stitch the set of images generated for each frame of an animation into a video with various format. If you do not install FFmpeg, Animator will only generate the animation as a sequence of images.I am trying to compile FFMPEG and Libaom from source apparently because the gcc and g++ compilers in Ubuntu 18.04 by default has enabled the following option by default: --enable-default-pie $ gcc -v Using built-in specs.Most users should use the static build, while developers need to use the shared builds (text copied & modified from Zeranoe). All builds are licensed as GPL 3.0. For macOS builds, please check out evermeet.cx. FYI, it’s easy to build FFmpeg for macOS using homebrew – I’ve written about it here. FS#66796 - [ffmpeg] libaom.so. - out of date? Attached to Project: Arch Linux. Opened by James (thx1138) - Wednesday, 27 May 2020, 03:41 GMT. Last edited by Maxime Gauduin (Alucryd) - Tuesday, 21 July 2020, 12:11 GMT."libaom" Flag Description; media-video/ffmpeg: Enables media-libs/libaom based AV1 codec support. All packages providing a "libaom" USE flag (1) media-video/ffmpeg; Gentoo Packages Database. Data as current of Mar 08, 2022 20:05:38 UTC Questions or comments? Please feel ...Configuration Options: ===> The following configuration options are available for ffmpeg-4.4.1_9,1: ALSA=off: ALSA audio architecture support AMR_NB=off: AMR Narrow Band audio support (opencore) AMR_WB=off: AMR Wide Band audio support (opencore) AOM=on: AV1 video encoding/decoding via libaom ARIBB24=off: ARIB text and caption decoding via libaribb24 ASM=on: Use optimized assembly code ASS=on ...Docker HubAs you can see there are very few options, I have tested libaom and it's so slow as to be unusable, and according to NetFlix SVT-AV1 is very close to libaom; I would love to test rav1e but I have never been able to build ffmpeg with rav1e, it fails every time, can't figure out what I am doing wrong.Pastebin.com is the number one paste tool since 2002. Pastebin is a website where you can store text online for a set period of time.cd ~/ffmpeg_sources/ffmpeg ./ffmpeg -version ./ffmpeg -h encoder=libaom-av1 ./ffmpeg -h encoder=libsvtav1 ffmpeg -version ffmpeg -h encoder=libsvtav1 ffmpeg -h encoder=libaom-av1 You can download the build scripts at Build FFmpeg Build FFmpeg. GitHub Gist: instantly share code, notes, and snippets. 262588213843476Gist Reference"libaom" Flag Description; media-video/ffmpeg: Enables media-libs/libaom based AV1 codec support. All packages providing a "libaom" USE flag (1) media-video/ffmpeg; Gentoo Packages Database. Data as current of Mar 08, 2022 20:05:38 UTC Questions or comments? Please feel ... [FFmpeg-devel] gdigrab: added option to select window by HWND. [FFmpeg-devel] gdigrab: added option to select window by HWND. - - - - 4--2021-10-22: [email protected]: New [FFmpeg-devel,v2] libavformat/mov: ffmpeg can't read mp4 track title metadata [FFmpeg-devel,v2] libavformat/mov: ffmpeg can't read mp4 track title metadata - - - - 4--Then pass --enable-libaom to configure to enable it. 1.2 AMD AMF/VCE FFmpeg can use the AMD Advanced Media Framework library for accelerated H.264 and HEVC(only windows) encoding on hardware with Video Coding Engine (VCE).Render Animation¶. Render animation allows you to render your animation to an image sequence, .gif, .mp4, .mkv, or .ogg file. It replaces Export Animation.. For rendering to an animated file format, Krita will first render to a PNG sequence and then use FFmpeg, which is really good at encoding into video files, to render that sequence to an animated file format.rav1e - can set mastering data and CLL via their CLI but not through ffmpeg. SVT AV1 - Now supports HDR10 with latest master ffmpeg build, make sure to update before trying! aomenc (libaom-av1) - does not look to support HDR10; HDR10+ For Windows users with Nvidia cards, NVEncC is the best option currently to use HDR10+.OPTIONS_DEFINE= ALSA AMR_NB AMR_WB AOM ARIBB24 ASM ASS BS2B CACA CDIO \ CODEC2 DAV1D DAVS2 DC1394 DEBUG DOCS DRM FDK_AAC FLITE \ FONTCONFIG FREETYPE FREI0R FRIBIDI GLSLANG GME GSM ICONV ILBC \ JACK KLVANC KVAZAAR LADSPA LAME LENSFUN LIBBLURAY LIBRSVG2 \ LIBXML2 LTO LV2 MFX MODPLUG MYSOFA OPENAL OPENCL OPENGL \ OPENH264 OPENJPEG OPENMPT OPENVINO ...Apr 18, 2005 · FFmpeg is a very fast video and audio converter. It can also grab from a live audio/video source. FFplay is a very simple and portable media player using the FFmpeg libraries and the SDL library. Port by different authors. This software is distributed in two modes: Options may be set by specifying - option value in the FFmpeg tools, or by setting the value explicitly in the AVCodecContext options or using the libavutil/opt.h API for programmatic use. The list of supported options follow: b integer (encoding,audio,video) Set bitrate in bits/s. Default value is 200K. ab integer (encoding,audio)You're running a release of ffmpeg that was forked from master in 2018. AV1 is a new format, so try the current git master (version), it is probably going to work a lot better. I did try that. Problem is, with libaom-av1 and ffmpeg from the latest git, it segfaults after encoding around 50 frames.AV1 Now Only 2X Slower Than x265. AV1 encoding on Windows is now only 2x slower than x265. With a properly compiled version of FFmpeg, encoding performance is slightly faster than the Alliance for Open Media's encoder, though output quality is very slightly lower. Congrats to AOM for delivering on their promise to get encoding times down.Code: Select all build: ffmpeg-4.3-amd64-static.tar.xz version: 4.3 gcc: 8.3.0 yasm: 1.3..36.ge2569 nasm: 2.14.02 libaom: 2..-366-g7de6531f8 libass: 0.14.0 libgme ...AOMedia Video 1 (AV1) is an open, royalty-free video coding format initially designed for video transmissions over the Internet. It was developed as a successor to VP9 by the Alliance for Open Media (AOMedia), a consortium founded in 2015 that includes semiconductor firms, video on demand providers, video content producers, software development companies and web browser vendors.OPTIONS_DEFINE= ALSA AMR_NB AMR_WB AOM ARIBB24 ASM ASS BS2B CACA CDIO \ CODEC2 DAV1D DAVS2 DC1394 DEBUG DOCS DRM FDK_AAC FLITE \ FONTCONFIG FREETYPE FREI0R FRIBIDI GLSLANG GME GSM ICONV ILBC \ JACK KLVANC KVAZAAR LADSPA LAME LENSFUN LIBBLURAY LIBRSVG2 \ LIBXML2 LTO LV2 MFX MODPLUG MYSOFA OPENAL OPENCL OPENGL \ OPENH264 OPENJPEG OPENMPT OPENVINO ...Previously I was able to stream my camera using ffmpeg and libx264 encoder/decoder, it was said since this is software base, it will most likely cause a delay, thus I followed a tutorial in getting my h264_mmal & h264_omx libraries installed for ffmpeg, see this ffmpeg setup script adapted from this and this. My script simply adds:libaom: Dont use aom_codec_av1_dx_algo. This fixes linking errors where variables cannot be correctly linked in from an external shared library such as with msvc (requires dllimport which is not used by libaom). Instead just call the function that returns the same variable.我目前在使用的VLC media player (3.0.6)和PotPlayer (1.7.17508)都已经支持AV1的视频格式,内部通过ffmpeg使用的libaom-av1解码器进行解码。. 解码示例 :使用libaom-av1编码器把mp4文件中的av1视频格式解码为yuv的原始数据. ffmpeg -c:v libaom-av1 -i julin_5s_av1.mp4 -f rawvideo julin_5s_av1_yuv ...FFmpeg build also includes x264, x265, VP9, VMAF, LAME, AAC, OPUS; Download# The docker image is available @ Docker Hub - singhkays/ffmpeg-av1-libaom. Usage# If you haven't used docker containers before, I suggest reading the below links first: Get started with Docker; Install Docker Community Engine; Running the AV1 docker container#Encoded a .png screenshot to .png with FFmpeg. Encoded this screenshot to a AV1 with -c:v libaom-av1 -cpu-used 0, once with -lossless 1 and once without. Encoded these .mp4's back to .png's. Repeated step 2 and 3 once more. This resulted in 5 .png's, the input and two output files from both the lossy and lossless.FFmpeg build also includes x264, x265, VP9, VMAF, LAME, AAC, OPUS; Download# The docker image is available @ Docker Hub - singhkays/ffmpeg-av1-libaom. Usage# If you haven't used docker containers before, I suggest reading the below links first: Get started with Docker; Install Docker Community Engine; Running the AV1 docker container#OPTIONS_DEFINE= ALSA AMR_NB AMR_WB AOM ARIBB24 ASM ASS BS2B CACA CDIO \ CODEC2 DAV1D DAVS2 DC1394 DEBUG DOCS DRM FDK_AAC FLITE \ FONTCONFIG FREETYPE FREI0R FRIBIDI GLSLANG GME GSM ICONV ILBC \ JACK KLVANC KVAZAAR LADSPA LAME LENSFUN LIBBLURAY LIBRSVG2 \ LIBXML2 LTO LV2 MFX MODPLUG MYSOFA OPENAL OPENCL OPENGL \ OPENH264 OPENJPEG OPENMPT OPENVINO ...Most users should use the static build, while developers need to use the shared builds (text copied & modified from Zeranoe). All builds are licensed as GPL 3.0. For macOS builds, please check out evermeet.cx. FYI, it’s easy to build FFmpeg for macOS using homebrew – I’ve written about it here. Nov 22, 2016 · Code: Select all build: ffmpeg-4.3-amd64-static.tar.xz version: 4.3 gcc: 8.3.0 yasm: 1.3.0.36.ge2569 nasm: 2.14.02 libaom: 2.0.0-366-g7de6531f8 libass: 0.14.0 libgme ... FFmpeg is available in the official repositories of Ubuntu, so you can install it using command: $ sudo apt-get install ffmpeg. FFmpeg in the official repositories might be bit outdated. To install most recent version, use the FFmpeg PPA. $ sudo add-apt-repository ppa:mc3man/ trusty- media. $ sudo apt-get update.Compile FFMPEG on WSL 2 Linux and link it to Windows I compile FFMPEG from source built with CUDA support in Linux. Now I want to link the compiled FFMPEG in WSL 2 Ubuntu to Windows (build 19640 Insider) so that Windows can detect FFMPEG CUDA.Includes FFmpeg v4.4-dev-416 with fontconfig v2.13.92, freetype v2.10.2, fribidi v1.0.9, gmp v6.2.0, gnutls v3.6.13, kvazaar v2.0.0, lame v3.100, libaom v1.0.0 ...I recently learned how to add an audio track to the video using PHP-FFMpeg. Now I wanted to add overlay text to video. The FFmpeg command-line tool accepts drawtext filter using the libfreetype library. The catch is, everything that's possible in the FFmpeg command-line is not possible in PHP-FFMpeg, but this one is definitely possible.Let's see how to do that now.Apr 18, 2005 · FFmpeg is a very fast video and audio converter. It can also grab from a live audio/video source. FFplay is a very simple and portable media player using the FFmpeg libraries and the SDL library. Port by different authors. This software is distributed in two modes: Docker Hublibilbc, opus, snappy, x264 and xvidcore are supported since v1.1. libaom and soxr are supported since v2.0. chromaprint, vid.stab and x265 are supported since v2.1. sdl, tesseract, twolame external libraries; zlib, MediaCodec Android system libraries; bzip2, zlib iOS system libraries and AudioToolbox, VideoToolbox, AVFoundation iOS system frameworks are supported since v3.0tags: MacOS Debug Tips. Question. Recently, I wanted to download the live playback course in nailing with the tried and true method, but some errors suddenly appeared when executing ffmpeg on the command line: [1] 40344 killed ffmpeglibaom, the AOMedia codec in FFmpeg, v 2.0.0 aomenc is AOMedia's standalone encoding executable and is available here. During the testing process, I sent questions and encoding strings to Google, which was kind enough to lend assistance. SVT-AV1 is an AV1 codec implementation created by Intel and Netflix and is available on GitHub.Pre-built FFmpeg in Raspberry Pi OS. The FFmpeg package in Raspberry Pi OS is built with H264 Hardware Acceleration already, just need to download it from the package manager: sudo apt install ffmpeg -y. The below guide helps to compile FFmpeg from the latest source code to get new features or bug fixes. 1. Manual compilation.March 27, 2020. By: jdriselvato. Tags: FFmpeg. At this point FFMPEG should be installed on your operating system of choice and ready for use. To double check installation, it's always good to view the current version installed. $ ffmpeg -version. The output not only details the FFMPEG version but also the various configurations enabled and ...I recently learned how to add an audio track to the video using PHP-FFMpeg. Now I wanted to add overlay text to video. The FFmpeg command-line tool accepts drawtext filter using the libfreetype library. The catch is, everything that's possible in the FFmpeg command-line is not possible in PHP-FFMpeg, but this one is definitely possible.Let's see how to do that now.Feb 16, 2022 · Re: [FFmpeg-trac] #9420(avdevice:reopened): DirectShow (dshow) audio input limited to 44.1 kHz / 16-bit. FFmpeg Wed, 16 Feb 2022 00:27:56 -0800 ffmpeg -i FILE.mov -af silencedetect=noise=0.0001 -f null - 2>&1. I think I would need to check if the last silence_duration value is equal to the duration. There seems to be different rounding of decimal points depending on the values for FFMPEG's output (duration = 15.67, silence_duration=15.6667), so whatever accuracy is possible given these ...FastFlix is a simple and friendly GUI for encoding videos. FastFlix keeps HDR10 metadata for x265, which will be expanded to AV1 libraries when available. It needs FFmpeg (version 4.3 or greater) under the hood for the heavy lifting, and can work with a variety of encoders. Check out the FastFlix github wiki for help or more details!rpms / ffmpeg. Clone. Source Code. GIT. Source; Issues ; Pull Requests 0 ... hevc_qsv # hardware hevc_v4l2m2m # hardware hevc_vaapi # hardware huffyuv # trivial+zlib jpegls jpeg2000 libaom # libaom libaom_av1 # libaom libcodec2 # codec2 libgsm # libgsm libmp3lame # lame libopenh264 # openh264_dlopen libopenjpeg # openjpeg libopus # opus ...I have been trying to utilize the amf-amdgpu-pro package from driver 19.30 in Ubuntu 18.04 using the latest branch of FFmpeg to do an h264_amf encode with varying success. I have a dual GPU system with a rx vega 56 and a rx 480. I have noticed when the vega 56 card is active I have the capability t...2.2 Existing Applications. It is possible to add flutter_ffmpeg to existing applications using Add-to-App guide.. Please execute the following additional steps if you are integrating into an iOS application. Go to Build Phases of Pods-> FlutterPluginRegistrant target and add all frameworks under the Pods/mobile-ffmpeg-<package name> directory to the Link Binary With Libraries sectionCompile FFMPEG on WSL 2 Linux and link it to Windows I compile FFMPEG from source built with CUDA support in Linux. Now I want to link the compiled FFMPEG in WSL 2 Ubuntu to Windows (build 19640 Insider) so that Windows can detect FFMPEG CUDA.Pre-built FFmpeg in Raspberry Pi OS. The FFmpeg package in Raspberry Pi OS is built with H264 Hardware Acceleration already, just need to download it from the package manager: sudo apt install ffmpeg -y. The below guide helps to compile FFmpeg from the latest source code to get new features or bug fixes. 1. Manual compilation.Compile FFMPEG on WSL 2 Linux and link it to Windows I compile FFMPEG from source built with CUDA support in Linux. Now I want to link the compiled FFMPEG in WSL 2 Ubuntu to Windows (build 19640 Insider) so that Windows can detect FFMPEG CUDA.libvpx is a free software video codec library from Google and the Alliance for Open Media (AOMedia). It serves as the reference software implementation for the VP8 and VP9 video coding formats, and for AV1 a special fork named libaom that was stripped of backwards compatibility.. As free software it is published also in source code under the terms of the revised BSD license.FFmpeg is a widely-used cross-platform multimedia framework which can process almost all common and many uncommon media formats. It has over 1000 internal components to capture, decode, encode, modify, combine, stream media, and it can make use of dozens of external libraries to provide more capabilities.[FFmpeg-devel] gdigrab: added option to select window by HWND. [FFmpeg-devel] gdigrab: added option to select window by HWND. - - - - 4--2021-10-22: [email protected]: New [FFmpeg-devel,v2] libavformat/mov: ffmpeg can't read mp4 track title metadata [FFmpeg-devel,v2] libavformat/mov: ffmpeg can't read mp4 track title metadata - - - - 4--From patchwork Mon Mar 28 20:47:52 2022 Content-Type: text/plain; charset="utf-8" MIME-Version: 1.0 Content-Transfer-Encoding: 7bit X-Patchwork-Submitter: Vignesh Venkatasubramanian X-Patchwork-Id: 35025 Delivered-To: [email protected] Received: by 2002:a05:6a20:c05:b0:7a:e998:b410 with SMTP id bw5csp526979pzb; Mon, 28 Mar 2022 13:48:07 -0700 (PDT) X-Google-Smtp-Source ...第二步,安装ffmpeg. 执行. brew install ffmpeg. 或者执行都可以,唯一区别是下面语句安装的是最新版本。. brew install ffmpeg --HEAD. 两者都会检测ffmpeg的依赖包并自动安装上,请耐心等待,可以用ps -ef | grep ffmpeg 看一下最新进展。. 上面两步都没有问题,好多博客也都 ...FFmpeg - ffplay tool includes libaom and so will can play AV1 4K directly Stream #0:0: Video: av1 (Main) , yuv420p(tv), 3840x2160, SAR 1:1 DAR 16:9, 29.97 fps, 29.97 tbr, 1k tbn, 1k tbc (default) Metadata: HANDLER_NAME : Core Media Video ENCODER : Lavc58.19.102SVT-AV1: an open-source AV1 encoder and decoder - by Andrey Norkin, Joel Sole, Mariana Afonso, Kyle Swanson, Agata Opalach, Anush Moorthy, Anne Aaron. aom - Git at Google -. luziferius/av1transcoder - Transcode video files to the AV1 format using ffmpeg and libaom-av1. - luziferius/av1transcoder.ffmpeg -y -i 'Ukidig-MASTER.mp4' -c:v libaom-av1 -b:v 1000k -minrate 500k -maxrate 2500k -bufsize 5000k -crf 28 -cpu-used 8 -threads 16 -g 60 -keyint_min 60 -tile-columns 4 -auto-alt-ref 1 -lag-in-frames 25 -frame-parallel 1 -row-mt 1 -pass 1 -an -strict experimental -y -movflags +faststart -f webm /dev/null && \ ffmpeg -y -i 'Ukidig-MASTER.mp4 ...Feb 09, 2021 · Compile FFmpeg + libaom (AOM AV1) + libsvtav1 (Scalable Video Technology, SVT AV1) Prepare Compiler apt-get install -y autoconf automake build-essential cmake git-core libass-dev libfreetype6-dev libgnutls28-dev libsdl2-dev libtool libva-dev libvdpau-dev libvorbis-dev libxcb1-dev libxcb-shm0-dev libxcb-xfixes0-dev meson ninja-build pkg-config ... mobile-ffmpeg. FFmpeg for Android, iOS and tvOS. Not maintained anymore. Superseded by FFmpegKit. 1. Features. Includes both FFmpeg and FFprobe. Supports FFmpeg v3.4.x, v4.0.x, v4.1, v4.2 , v4.3 and v4.4-dev releases. Use prebuilt binaries available under Github / Maven Central / CocoaPods or build your own version with external libraries you need.Check the version of FFmpeg installed on your RHEL/CentOS system using the command. $ rpm -qi ffmpeg $ ffmpeg -version. Output. Step 4: Using FFmpeg on CentOS / RHEL 8. The usage of ffmpeg depends on individual projects and desired output. Refer to the official FFmpeg documentation for an in-depth description of its features and examples.Media in category "FFmpeg" The following 26 files are in this category, out of 26 total.Encoded a .png screenshot to .png with FFmpeg. Encoded this screenshot to a AV1 with -c:v libaom-av1 -cpu-used 0, once with -lossless 1 and once without. Encoded these .mp4's back to .png's. Repeated step 2 and 3 once more. This resulted in 5 .png's, the input and two output files from both the lossy and lossless.Feb 20, 2021 · I'm trying to build FFmpeg (version 4.3.1) with --enable-libaom for Windows using MSYS and Microsoft Visual C++. Configure script says: ERROR: aom >= 1.0.0 not found using pkg-config. But I have libaom (built it from sources) and paths to it are specified: Video Production Stack Exchange is a question and answer site for engineers, producers, editors, and enthusiasts spanning the fields of video, and media creation.As you can see there are very few options, I have tested libaom and it's so slow as to be unusable, and according to NetFlix SVT-AV1 is very close to libaom; I would love to test rav1e but I have never been able to build ffmpeg with rav1e, it fails every time, can't figure out what I am doing wrong.From patchwork Mon Mar 28 20:47:52 2022 Content-Type: text/plain; charset="utf-8" MIME-Version: 1.0 Content-Transfer-Encoding: 7bit X-Patchwork-Submitter: Vignesh Venkatasubramanian X-Patchwork-Id: 35025 Delivered-To: [email protected] Received: by 2002:a05:6a20:c05:b0:7a:e998:b410 with SMTP id bw5csp526979pzb; Mon, 28 Mar 2022 13:48:07 -0700 (PDT) X-Google-Smtp-Source ...Segfault in latest libaom release when running through FFMPEG. I did, also included what GDB outputs when it segfaults as well as a stacktrace. On Mon, Aug 9, 2021. unread, Segfault in latest libaom release when running through FFMPEG.sudo apt autoremove --purge ffmpeg. Then create a folder where the new version of FFmpeg will be located. I will install it in /opt/ but you can choose another one. sudo mkdir -p /opt/ffmpeg. Now access it, cd /opt/ffmpeg. Inside the folder, we proceed to download the latest version of FFmpeg that at the time of writing this post is 4.3.2Mar 28, 2022 · Message ID: [email protected]: State: New: Headers: show The description of FFmpeg CLI App. This is an application which can help you edit audio and video by using FFmpeg with Command Line Interface on Android devices. FFmpeg is a video and audio converter. It supports many codecs and has many useful functions to deal with conversion. The most important thing is that FFmpeg is FREE for personal use.FFmpeg build also includes x264, x265, VP9, VMAF, LAME, AAC, OPUS; Download# The docker image is available @ Docker Hub - singhkays/ffmpeg-av1-libaom. Usage# If you haven't used docker containers before, I suggest reading the below links first: Get started with Docker; Install Docker Community Engine; Running the AV1 docker container#Video Production Stack Exchange is a question and answer site for engineers, producers, editors, and enthusiasts spanning the fields of video, and media creation.libvpx is a free software video codec library from Google and the Alliance for Open Media (AOMedia). It serves as the reference software implementation for the VP8 and VP9 video coding formats, and for AV1 a special fork named libaom that was stripped of backwards compatibility.. As free software it is published also in source code under the terms of the revised BSD license.Feb 16, 2022 · Re: [FFmpeg-trac] #9420(avdevice:reopened): DirectShow (dshow) audio input limited to 44.1 kHz / 16-bit. FFmpeg Wed, 16 Feb 2022 00:27:56 -0800 FFmpeg is a video and audio converter. It supports many codecs and has many useful functions to deal with conversion. The most important thing is that FFmpeg is FREE for personal use. You can compile your own FFmpeg binary file(if you want, please use the FFmpeg source code on our GitHub) called customized FFmpeg and use it via this application.FFmpeg is a free and open-source collection of tools for handling multimedia files. It contains a set of shared audio and video libraries such as libavcodec, libavformat, and libavutil.Dort gibt es kein --enable-"libaom" oder "libaom3" oder "libaom-av1". Ich habe libaom0 und libaom3 beides installiert. Aber es meldet "codec not recognised", was ja auch klar ist, da es in ffmpeg nicht einkompiliert ist, wenn ich das richtig verstehe.SVT-AV1 has been both faster and higher quality than x265 for awhile now though? For ease of use, you can just use ffmpeg, or one of the many CLIs or GUIs that support AV1 (preferably either Av1an for CLI, or a gui that uses it under the hood eg. nmkoder).FFmpeg在Linux平台下开发,但它同样也可以在其它操作系统环境中编译运行,包括Windows、Mac OS X等。 这个项目最早由Fabrice Bellard发起,2004年至2015年间由Michael Niedermayer主要负责维护。许多FFmpeg的开发人员都来自MPlayer项目,而且当前FFmpeg也是放在MPlayer项目组的服务器上。ffmpeg is used for video formats conversion. The version used is ffmpeg 3.3.5. FFMPEG's ffprobe is used to determine the width, height and number of frames of the videos. Python 3 timeit is used to mesure computing times. ... AV1 libaom: between q=12 and q=60, with a step of 4:Render Animation¶. Render animation allows you to render your animation to an image sequence, .gif, .mp4, .mkv, or .ogg file. It replaces Export Animation.. For rendering to an animated file format, Krita will first render to a PNG sequence and then use FFmpeg, which is really good at encoding into video files, to render that sequence to an animated file format.Render Animation¶. Render animation allows you to render your animation to an image sequence, .gif, .mp4, .mkv, or .ogg file. It replaces Export Animation.. For rendering to an animated file format, Krita will first render to a PNG sequence and then use FFmpeg, which is really good at encoding into video files, to render that sequence to an animated file format.libsvtav1 AV1 编码速度比 libaom 大大提升. libaom 编码速度 speed=0.0178x 真的无法忍受这个速度,每秒只能处理 2-3个帧. 相比 libaom ,libsvtav1 速度有所提升 speed=0.0966x 差不多提升了 10倍左右. ffmpeg 现在支持 libsvtav1,只有 x64 才能用,x86 不支持.Installs ffmpeg with libaom and libx265 enabled for av1 and hevc encoding (tested on Ubuntu 16.04) Raw install-ffmpeg.sh This file contains bidirectional Unicode text that may be interpreted or compiled differently than what appears below. To review, open the file in an editor that reveals hidden Unicode characters.ffmpeg Tools for transcoding, streaming and playing of multimedia files ffmpeg-doc Documentation of the FFmpeg multimedia framework libavcodec-dev FFmpeg library with de/encoders for audio/video codecs - development files libavcodec-extra FFmpeg library with extra codecs (metapackage) libavcodec-extra58FastFlix is a simple and friendly GUI for encoding videos. FastFlix keeps HDR10 metadata for x265, which will be expanded to AV1 libraries when available. It needs FFmpeg (version 4.3 or greater) under the hood for the heavy lifting, and can work with a variety of encoders. Check out the FastFlix github wiki for help or more details!Media in category "FFmpeg" The following 26 files are in this category, out of 26 total.FFmpeg在Linux平台下开发,但它同样也可以在其它操作系统环境中编译运行,包括Windows、Mac OS X等。 这个项目最早由Fabrice Bellard发起,2004年至2015年间由Michael Niedermayer主要负责维护。许多FFmpeg的开发人员都来自MPlayer项目,而且当前FFmpeg也是放在MPlayer项目组的服务器上。ffmpeg对mp4文件进行ts切片并生成m3u8文件_weixin_34380948的博客-程序员宝宝 技术标签: python java ffmpeg 2019独角兽企业重金招聘Python工程师标准>>> Feb 20, 2021 · I'm trying to build FFmpeg (version 4.3.1) with --enable-libaom for Windows using MSYS and Microsoft Visual C++. Configure script says: ERROR: aom >= 1.0.0 not found using pkg-config. But I have libaom (built it from sources) and paths to it are specified: ffmpeg -y -i 'Ukidig-MASTER.mp4' -c:v libaom-av1 -b:v 1000k -minrate 500k -maxrate 2500k -bufsize 5000k -crf 28 -cpu-used 8 -threads 16 -g 60 -keyint_min 60 -tile-columns 4 -auto-alt-ref 1 -lag-in-frames 25 -frame-parallel 1 -row-mt 1 -pass 1 -an -strict experimental -y -movflags +faststart -f webm /dev/null && \ ffmpeg -y -i 'Ukidig-MASTER.mp4 ...FFMpeg allows to crop a given media file in any dimension of our choice. The syntax to crop a video file is given below: ffmpeg -i input.mp4 -filter:v "crop=w:h:x:y" output.mp4. Here, input.mp4 - source video file.-filter:v - Indicates the video filter. crop - Indicates crop filter. w - Width of the rectangle that we want to crop from the ...Installs ffmpeg with libaom and libx265 enabled for av1 and hevc encoding (tested on Ubuntu 16.04) Raw install-ffmpeg.sh This file contains bidirectional Unicode text that may be interpreted or compiled differently than what appears below. To review, open the file in an editor that reveals hidden Unicode characters.Support for AV1 in WebM is a bit postponted because libaom's WebM muxer isn't updated to the latest spec yet, see this bug for details. But FFmpeg already does the right thing so there should be nothing wrong with WebM videos it produces. You can also use MP4 container to store your AV1 video in (pass -f mp4 option to ffmpeg for that). It ...The place to download static FFmpeg binaries for macOS 64-bit. snapshots and release binaries are available. FFmpeg developers strongly encourage all users to use a current snapshot build instead of a release build.libvpx is a free software video codec library from Google and the Alliance for Open Media (AOMedia). It serves as the reference software implementation for the VP8 and VP9 video coding formats, and for AV1 a special fork named libaom that was stripped of backwards compatibility.. As free software it is published also in source code under the terms of the revised BSD license.ffmpeg对mp4文件进行ts切片并生成m3u8文件_weixin_34380948的博客-程序员宝宝 技术标签: python java ffmpeg 2019独角兽企业重金招聘Python工程师标准>>>Sep 24, 2020 · 新バージョンのFFmpegは「libaom」に対応でき、AV1変換が可能となりました。保存したライブ動画はAV1の場合に、FFmpegを使ってAV1をMP4など再生できるファイルに変換できます。ではこの記事でAV1エンコードをFFmpegで完成できる方法をご紹介します。 FFmpeg - ffplay tool includes libaom and so will can play AV1 4K directly Stream #0:0: Video: av1 (Main) , yuv420p(tv), 3840x2160, SAR 1:1 DAR 16:9, 29.97 fps, 29.97 tbr, 1k tbn, 1k tbc (default) Metadata: HANDLER_NAME : Core Media Video ENCODER : Lavc58.19.102